Регистрация ·
Имя: Пароль:  
· Забыли пароль? · Вопросы от гостей
Kliplar To'plami
O'zbek Tilida
Rizanova
12 Round
O'zbek Tilida
BluRay 1080p
Qo'riqchi ayol
O'zbek Tilida
BluRay 1080p
SHAFT
O'zbek Tilida
BDRip
SHAFT
O'zbek Tilida
WEBRip 1080p
Javohir politsiyachi
O'zbek Tilida
BDRip-AVC
So'nggi Ritsarlar
O'zbek Tilida
BluRay 1080p
Агент Ева
O'zbek Tilida
WEB-Rip
Анна
iTunes
BDRip 1080p
Анна
iTunes
BDRip-AVC
Анна
iTunes
BDRip
Mulan
O'zbek Tilida
WEBRip 1080p HEVC x265
Мулан
IdeaFilm
WEB-DL 720p
Мулан
IdeaFilm
WEB-DL 1080p
Мулан
IdeaFilm
WEB-DL 2160p
Temir Odam Uchligi
O'zbek Tilida
BluRay, 1080p, HEVC, x265, 10bit
Kliplar To'plami
O'zbek Tilida
Rizanova
Singularity
Repack
Mechanics
Tom Raider
Repack
Xatab
Far Cry New Dawn
Repack
Xatab
Far Cry 3
Repack
Xatab
Фитнес
Россия
WEB-DL 720p
Resident Evil
Гексалогия
Repack
Godzilla 2; Mahluqlar Qiroli
O'zbek Tilida
WEBRip HEVC 720p
Olimpning Qulashi
O'zbek Tilida
BDRip
X-Odamlar Qora Qaqnus
O'zbek Tilida
BDRip 1080p
Sevishganlar
O'zbek Tilida
HDRip
Maymunlar Sayyorasi Uchlik
O'zbek Tilida
BDRip
Koko Siri
O'zbek Tilida
BDRip-AVC
Спартак
РенТВ
BDRip 720p
Shelbilar oilasi
O'zbek Tilida
x265 1080p WEBRip 10bit
Однажды на востоке
Лицензия
BDRip 1080p
Yason va Argonaftlar
O'zbek Tilida
DVDRip x264
Shelbilar oilasi
O'zbek Tilida
BluRay 1080p x264
Qotillik Uchun Uch Kun
O'zbek Tilida
BluRay 1080p x264
Ko'd 211
O'zbek + Rus + Ing
BluRay 1080p
Интрижка
iTunes
WEB-DLRip
WarFace
Лицензия
Русский
Хоббит / Властелин колец
Коллекция
BDRip 1080p H264
SamDrivers
x32/x64
Repack
Чудесный доктор
WEB-DL 1080p
Турция
Острые козырьки
H265 1080p BluRay
Uzb+Ing
S.T.A.L.K.E.R
Анталогия
Repack
Зов джунглей
Рус
WEB-DL 1080p
Ajal Poygasi
Uzb Rus Ing
BrRip 1080p H264
Yengilmas Gvardiya
O'zbek Tilida
WEB-DL 1080p H264
Suv va Olov
O'zbek Tilida
BDRip H264
S.T.A.L.K.E.R.
Анталогия Модов
GSC Game World
GTA 5
RePack
Лицензия
Tunnel: Hayot uchun xavfli
Uzb Tilida
WEB-DL 1080p
Уважаемые гости сайта! Добро Пожаловать на наш торрент трекер,где Вы можете бесплатно скачать любой Софт,Фильмы,Музыку и многое другое! А так же постоянно ведется набор модераторов и релизеров. Зарегистрируйтесь сейчас, чтобы получить доступ ко всем функциям. После регистрации или входа на сайт вы сможете создавать темы, отвечать на сообщения и скачивать файлы.

12 Round / 12 раундов | 12 Rounds (Renni Xarlin | Ренни Харлин) [2009, Jangari, Triller, Jinoyat, BluRay 1080p] O'zbek + Rus + Ing Tillarda

Статистика раздачи
Скачал: [ 4 ]
 
     
 
 
Автор Сообщение

N.U.R.I.K.B.E.K ®

Не в сети

5417

Пол: Мужской

Стаж: 1 год 4 месяца

Сообщений: 43

Откуда: Jizzax.Paxtakor

Карма: 110

[+]

Провайдер: UzOnline UzOnline

Наличие запрета:



Награды: Нет

[Профиль] ЛС

Создавать темы 30-Окт-2020 16:16

Цитировать

-12 Round | 12 раундов | 12 Rounds
--Год выпуска: 2009
Страна: AQSH
Жанр: Jangari, Triller, Jinoyat
Продолжительность: 01:49:39
Перевод:
Профессиональный MilliyTV O'zbek Tilida.
Перевод: Профессиональный iTunes Rus Tilida.
Перевод: Профессиональный Org Ing Tilida.--Режиссер: Renni Xarlin | Ренни Харлин.--В ролях: Jon Kena, Aydan Gillen, Eshli Skott, Stiv Xarris, Brayan J. Uayt, Gonsalo Menendez, Teylor Koul, Kayl Rassel Klements, Piter Navi Tuyasosopo, Travis Devis--Описание: Nyu-Orlean politsiyasi xodimi Denni Fisher dunyodagi eng xavfli va qidirilayotgan jinoyatchilardan biri Mayls Jeksonni yakka o'zi hibsga oladi. Biroq, shu bilan birga, dahshatli baxtsiz hodisa Milesning qiz do'sti hayotini olib ketadi. Bir yil o'tgach, qasos olishga intilayotgan Jekson qamoqdan qochib, Deni qiz do'stini o'g'irlab ketadi. Shahar bo'ylab tarqalib ketgan 12 ta xavfli o'yinlarda qatnashishga majbur bo'lgan Danni, jinni odamlarning jarohati olishidan va uning hayotiga bo'lgan muhabbat abadiy yo'qolguncha, bu jinni kasal o'yinini to'xtatish va o'zining asl maqsadiga erishish uchun hamma narsani qiladi.--Качество видео: BluRay 1080p
Формат видео: MKV--Видео: MPEG4 Video (H264) 1920x804 23.976fps 2 500 kb/s
Аудио: AAC 48000Hz stereo 132 kb/s 48.0 kHz O'zbek Tili
Аудио: Dolby AC3 48000Hz 6ch 448kbps 448 kb/s 48.0 kHz Rus Tili
Аудио: AAC 48000Hz 6ch 256 kb/s 48.0 kHz Ing Tili-Cубтитры: Ko'p Tillarda.-

MediaInfo

General
Format : Matroska
Format version : Version 4 / Version 2
File size : 2.75 GiB
Duration : 1 h 49 min
Overall bit rate : 3 590 kb/s
Encoded date : UTC 2020-10-06 18:39:01
Writing application : mkvmerge v15.0.0 ('Duel with the Devil') 64-bit
Writing library : libebml v1.3.5 + libmatroska v1.4.5
Video
ID : 1
Format : AVC
Format/Info : Advanced Video Codec
Format profile : High@L4.1
Format settings, CABAC : Yes
Format settings, RefFrames : 5 frames
Codec ID : V_MPEG4/ISO/AVC
Duration : 1 h 49 min
Bit rate : 2 500 kb/s
Width : 1 920 pixels
Height : 804 pixels
Display aspect ratio : 2.40:1
Frame rate mode : Constant
Frame rate : 23.976 (24000/1001) FPS
Color space : YUV
Chroma subsampling : 4:2:0
Bit depth : 8 bits
Scan type : Progressive
Bits/(Pixel*Frame) : 0.068
Stream size : 1.91 GiB (70%)
Writing library : x264 core 148 r2708 86b7198
Default : Yes
Forced : No
Color range : Limited
Color primaries : BT.709
Transfer characteristics : BT.709
Matrix coefficients : BT.709
Audio #1
ID : 2
Format : AAC
Format/Info : Advanced Audio Codec
Format profile : LC
Codec ID : A_AAC
Duration : 1 h 49 min
Bit rate : 132 kb/s
Channel(s) : 2 channels
Channel positions : Front: L R
Sampling rate : 48.0 kHz
Frame rate : 46.875 FPS (1024 SPF)
Compression mode : Lossy
Delay relative to video : -21 ms
Stream size : 103 MiB (4%)
Title : O'zbek Tili
Language : Uzbek
Default : Yes
Forced : Yes
Audio #2
ID : 3
Format : AC-3
Format/Info : Audio Coding 3
Format settings, Endianness : Big
Codec ID : A_AC3
Duration : 1 h 49 min
Bit rate mode : Constant
Bit rate : 448 kb/s
Channel(s) : 6 channels
Channel positions : Front: L C R, Side: L R, LFE
Sampling rate : 48.0 kHz
Frame rate : 31.250 FPS (1536 SPF)
Bit depth : 16 bits
Compression mode : Lossy
Delay relative to video : -21 ms
Stream size : 350 MiB (12%)
Title : Rus Tili
Language : Russian
Service kind : Complete Main
Default : No
Forced : Yes
Audio #3
ID : 4
Format : AAC
Format/Info : Advanced Audio Codec
Format profile : LC
Codec ID : A_AAC
Duration : 1 h 49 min
Bit rate : 256 kb/s
Channel(s) : 6 channels
Channel positions : Front: L C R, Side: L R, LFE
Sampling rate : 48.0 kHz
Frame rate : 46.875 FPS (1024 SPF)
Compression mode : Lossy
Delay relative to video : -21 ms
Stream size : 201 MiB (7%)
Title : Ing Tili
Language : English
Default : No
Forced : Yes
Text #1
ID : 5
Format : PGS
Muxing mode : zlib
Codec ID : S_HDMV/PGS
Codec ID/Info : Picture based subtitle format used on BDs/HD-DVDs
Duration : 1 h 48 min
Bit rate : 34.7 kb/s
Count of elements : 2388
Stream size : 27.0 MiB (1%)
Title : English
Language : English
Default : No
Forced : No
Text #2
ID : 6
Format : PGS
Muxing mode : zlib
Codec ID : S_HDMV/PGS
Codec ID/Info : Picture based subtitle format used on BDs/HD-DVDs
Duration : 1 h 48 min
Bit rate : 42.9 kb/s
Count of elements : 2597
Stream size : 33.4 MiB (1%)
Title : German
Language : German
Default : No
Forced : No
Text #3
ID : 7
Format : PGS
Muxing mode : zlib
Codec ID : S_HDMV/PGS
Codec ID/Info : Picture based subtitle format used on BDs/HD-DVDs
Duration : 1 h 48 min
Bit rate : 30.3 kb/s
Count of elements : 2453
Stream size : 23.6 MiB (1%)
Title : Russian
Language : Russian
Default : No
Forced : No
Text #4
ID : 8
Format : PGS
Muxing mode : zlib
Codec ID : S_HDMV/PGS
Codec ID/Info : Picture based subtitle format used on BDs/HD-DVDs
Duration : 1 h 48 min
Bit rate : 31.9 kb/s
Count of elements : 2407
Stream size : 24.8 MiB (1%)
Title : Modern Greek
Language : Greek
Default : No
Forced : No
Text #5
ID : 9
Format : PGS
Muxing mode : zlib
Codec ID : S_HDMV/PGS
Codec ID/Info : Picture based subtitle format used on BDs/HD-DVDs
Duration : 1 h 48 min
Bit rate : 27.3 kb/s
Count of elements : 2399
Stream size : 21.2 MiB (1%)
Title : Hungarian
Language : Hungarian
Default : No
Forced : No
Text #6
ID : 10
Format : PGS
Muxing mode : zlib
Codec ID : S_HDMV/PGS
Codec ID/Info : Picture based subtitle format used on BDs/HD-DVDs
Duration : 1 h 48 min
Bit rate : 38.0 kb/s
Count of elements : 2405
Stream size : 29.6 MiB (1%)
Title : Icelandic
Language : Icelandic
Default : No
Forced : No
Text #7
ID : 11
Format : PGS
Muxing mode : zlib
Codec ID : S_HDMV/PGS
Codec ID/Info : Picture based subtitle format used on BDs/HD-DVDs
Duration : 1 h 48 min
Bit rate : 26.5 kb/s
Count of elements : 2049
Stream size : 20.6 MiB (1%)
Title : Polish
Language : Polish
Default : No
Forced : No
Text #8
ID : 12
Format : PGS
Muxing mode : zlib
Codec ID : S_HDMV/PGS
Codec ID/Info : Picture based subtitle format used on BDs/HD-DVDs
Duration : 1 h 48 min
Bit rate : 31.5 kb/s
Count of elements : 2407
Stream size : 24.5 MiB (1%)
Title : Portuguese
Language : Portuguese
Default : No
Forced : No
Text #9
ID : 13
Format : PGS
Muxing mode : zlib
Codec ID : S_HDMV/PGS
Codec ID/Info : Picture based subtitle format used on BDs/HD-DVDs
Duration : 1 h 48 min
Bit rate : 33.7 kb/s
Count of elements : 2392
Stream size : 26.2 MiB (1%)
Title : Romanian
Language : rom
Default : No
Forced : No
Text #10
ID : 14
Format : PGS
Muxing mode : zlib
Codec ID : S_HDMV/PGS
Codec ID/Info : Picture based subtitle format used on BDs/HD-DVDs
Duration : 1 h 48 min
Bit rate : 28.4 kb/s
Count of elements : 2401
Stream size : 22.1 MiB (1%)
Title : Slovenian
Language : Slovenian
Default : No
Forced : No
Text #11
ID : 15
Format : PGS
Muxing mode : zlib
Codec ID : S_HDMV/PGS
Codec ID/Info : Picture based subtitle format used on BDs/HD-DVDs
Duration : 1 h 48 min
Bit rate : 29.0 kb/s
Count of elements : 2403
Stream size : 22.6 MiB (1%)
Title : Turkish
Language : Turkish
Default : No
Forced : No
Text #12
ID : 16
Format : PGS
Muxing mode : zlib
Codec ID : S_HDMV/PGS
Codec ID/Info : Picture based subtitle format used on BDs/HD-DVDs
Duration : 1 h 49 min
Bit rate : 71.9 kb/s
Count of elements : 4327
Stream size : 56.4 MiB (2%)
Title : German
Language : German
Default : No
Forced : No
Text #13
ID : 17
Format : PGS
Muxing mode : zlib
Codec ID : S_HDMV/PGS
Codec ID/Info : Picture based subtitle format used on BDs/HD-DVDs
Duration : 1 h 49 min
Bit rate : 67.2 kb/s
Count of elements : 4201
Stream size : 52.7 MiB (2%)
Title : Russian
Language : Russian
Default : No
Forced : No
Text #14
ID : 18
Format : PGS
Muxing mode : zlib
Codec ID : S_HDMV/PGS
Codec ID/Info : Picture based subtitle format used on BDs/HD-DVDs
Duration : 1 h 48 min
Bit rate : 32.1 kb/s
Count of elements : 2412
Stream size : 25.0 MiB (1%)
Title : Bulgarian
Language : Bulgarian
Default : No
Forced : No
Text #15
ID : 19
Format : PGS
Muxing mode : zlib
Codec ID : S_HDMV/PGS
Codec ID/Info : Picture based subtitle format used on BDs/HD-DVDs
Duration : 1 h 48 min
Bit rate : 29.0 kb/s
Count of elements : 2405
Stream size : 22.6 MiB (1%)
Title : Croatian
Language : Croatian
Default : No
Forced : No
Text #16
ID : 20
Format : PGS
Muxing mode : zlib
Codec ID : S_HDMV/PGS
Codec ID/Info : Picture based subtitle format used on BDs/HD-DVDs
Duration : 1 h 48 min
Bit rate : 31.1 kb/s
Count of elements : 2403
Stream size : 24.2 MiB (1%)
Title : Czech
Language : Czech
Default : No
Forced : No
Text #17
ID : 21
Format : UTF-8
Codec ID : S_TEXT/UTF8
Codec ID/Info : UTF-8 Plain Text
Duration : 1 h 20 min
Bit rate : 0 b/s
Count of elements : 3
Stream size : 159 Bytes (0%)
Language : Uzbek
Default : Yes
Forced : Yes
LAVHALAR
Показать сообщения:    

Текущее время: 28-Ноя 23:40

Часовой пояс: UTC - 5



Вы не можете начинать темы
Вы не можете отвечать на сообщения
Вы не можете редактировать свои сообщения
Вы не можете удалять свои сообщения
Вы не можете голосовать в опросах
Вы не можете прикреплять файлы к сообщениям
Вы не можете скачивать файлы