Регистрация ·
Имя: Пароль:  
· Забыли пароль? · Вопросы от гостей
Kliplar To'plami
O'zbek Tilida
Rizanova
12 Round
O'zbek Tilida
BluRay 1080p
Qo'riqchi ayol
O'zbek Tilida
BluRay 1080p
SHAFT
O'zbek Tilida
BDRip
SHAFT
O'zbek Tilida
WEBRip 1080p
Javohir politsiyachi
O'zbek Tilida
BDRip-AVC
So'nggi Ritsarlar
O'zbek Tilida
BluRay 1080p
Агент Ева
O'zbek Tilida
WEB-Rip
Анна
iTunes
BDRip 1080p
Анна
iTunes
BDRip-AVC
Анна
iTunes
BDRip
Mulan
O'zbek Tilida
WEBRip 1080p HEVC x265
Мулан
IdeaFilm
WEB-DL 720p
Мулан
IdeaFilm
WEB-DL 1080p
Мулан
IdeaFilm
WEB-DL 2160p
Temir Odam Uchligi
O'zbek Tilida
BluRay, 1080p, HEVC, x265, 10bit
Kliplar To'plami
O'zbek Tilida
Rizanova
Singularity
Repack
Mechanics
Tom Raider
Repack
Xatab
Far Cry New Dawn
Repack
Xatab
Far Cry 3
Repack
Xatab
Фитнес
Россия
WEB-DL 720p
Resident Evil
Гексалогия
Repack
Godzilla 2; Mahluqlar Qiroli
O'zbek Tilida
WEBRip HEVC 720p
Olimpning Qulashi
O'zbek Tilida
BDRip
X-Odamlar Qora Qaqnus
O'zbek Tilida
BDRip 1080p
Sevishganlar
O'zbek Tilida
HDRip
Maymunlar Sayyorasi Uchlik
O'zbek Tilida
BDRip
Koko Siri
O'zbek Tilida
BDRip-AVC
Спартак
РенТВ
BDRip 720p
Shelbilar oilasi
O'zbek Tilida
x265 1080p WEBRip 10bit
Однажды на востоке
Лицензия
BDRip 1080p
Yason va Argonaftlar
O'zbek Tilida
DVDRip x264
Shelbilar oilasi
O'zbek Tilida
BluRay 1080p x264
Qotillik Uchun Uch Kun
O'zbek Tilida
BluRay 1080p x264
Ko'd 211
O'zbek + Rus + Ing
BluRay 1080p
Интрижка
iTunes
WEB-DLRip
WarFace
Лицензия
Русский
Хоббит / Властелин колец
Коллекция
BDRip 1080p H264
SamDrivers
x32/x64
Repack
Чудесный доктор
WEB-DL 1080p
Турция
Острые козырьки
H265 1080p BluRay
Uzb+Ing
S.T.A.L.K.E.R
Анталогия
Repack
Зов джунглей
Рус
WEB-DL 1080p
Ajal Poygasi
Uzb Rus Ing
BrRip 1080p H264
Yengilmas Gvardiya
O'zbek Tilida
WEB-DL 1080p H264
Suv va Olov
O'zbek Tilida
BDRip H264
S.T.A.L.K.E.R.
Анталогия Модов
GSC Game World
GTA 5
RePack
Лицензия
Tunnel: Hayot uchun xavfli
Uzb Tilida
WEB-DL 1080p
Уважаемые гости сайта! Добро Пожаловать на наш торрент трекер,где Вы можете бесплатно скачать любой Софт,Фильмы,Музыку и многое другое! А так же постоянно ведется набор модераторов и релизеров. Зарегистрируйтесь сейчас, чтобы получить доступ ко всем функциям. После регистрации или входа на сайт вы сможете создавать темы, отвечать на сообщения и скачивать файлы.

Королева юга / Queen of the South [S01-S04] (2016-2019) WEB-DLRip 1080p от LostFilm / Сезон: 1-4. Серии: 1-52 из 52. (2016-2019) WEB-DLRip 1080p от LostFilm

Статистика раздачи
Нет
 
     
 
 
Автор Сообщение

Admin ®

Не в сети

2

VIP пользователь

Пол: Мужской

Стаж: 4 года 5 месяцев

Сообщений: 150

Карма: 787

[+]

Провайдер: UzOnline UzOnline

Тарифный план: UNLIME 20 Mbit/sekund

Наличие запрета:



Награды: Нет

[Профиль] ЛС

Создавать темы 15-Ноя-2020 11:08

Цитировать

Королева юга / Queen of the South [S01-S04] (2016-2019) WEB-DLRip от LostFilm
Название: Королева юга
Оригинальное название: Queen of the South
Год Выпуска: 2016-2019
Жанр: Боевик, триллер, драма
Выпущено: США
Режиссёр: Шарлотта Зилинг
В ролях: Алиси Брага, Жоаким ди Алмейда, Жустина Мачадо, Питер Гадиот, Хемки Мадера, Джеймс Мартинес, Даррен Шиэн.
Описание: Тереза покидает Мексику после того, как убивают её приятеля-наркокурьера. Обосновавшись в Испании, она стремится стать всевластным в стране контрабандистом наркотиков и отомстить за смерть своего любовника.

Качество: WEB-DLRip (чистый видеоряд)
Видео: MPEG4 Video (H264) 1920x1080 23.976fps
Аудио: Dolby AC3 48000Hz stereo 384kbps (Английский)
Аудио: Dolby AC3 48000Hz stereo 384kbps (Русский) Профессиональный (многоголосый, закадровый) (LostFilm)
Продолжительность: 52 x ~ 00:44:00

Королева юга / Queen of the South [S01] (2016) WEBRip 1080p от LostFilm

Название: Королева юга
Оригинальное название: Queen of the South
Год Выпуска: 2016
Жанр: Боевик, триллер, драма
Выпущено: США
Режиссёр: Шарлотта Зилинг
В ролях: Алиси Брага, Жоаким ди Алмейда, Жустина Мачадо, Питер Гадиот, Хемки Мадера, Джеймс Мартинес, Даррен Шиэн.
Описание: Тереза покидает Мексику после того, как убивают её приятеля-наркокурьера. Обосновавшись в Испании, она стремится стать всевластным в стране контрабандистом наркотиков и отомстить за смерть своего любовника.

Качество: WEB-DLRip (чистый видеоряд)
Видео: MPEG4 Video (H264) 1920x1080 23.976fps
Аудио: Dolby AC3 48000Hz stereo 384kbps (Английский)
Аудио: Dolby AC3 48000Hz stereo 384kbps (Русский) Профессиональный (многоголосый, закадровый) (LostFilm)
Продолжительность: 13 x ~ 00:43:00
Субтитры: Нет
Реклама: Отсутствует

Раздача ведется путем добавления новых серий

Когда раздача ведётся путём добавления новых серий, при каждом добавлении создётся новый торрент. Чтобы начать докачку новой серии, пользователям необходимо сделать следующее:
1. остановить скачивание,
2. удалить старый торрент у себя из клиента (старые серии удалять не надо),
3. скачать новый торрент и запустить его у себя в клиенте вместо старого, при этом указать клиенту путь в старую папку, куда и должно происходить скачивание новых серий.
Ваш клиент при этом должен произвести хеширование (проверку) старой папки (если не производит сам - помогите ему сделать это), и будет докачивать только те серии, которых у вас ещё нет. Старые серии при этом не удаляются, а продолжают раздаваться!
Eсли вы уже удалили старые серии, то предотвратить повторную закачку старых серий можно, отжав галочку в соответсвующих местах при запуске нового торрента. По возможности, желательно не удалять старые серии как можно дольше, чтобы релизёр не столько продолжал раздавать старые серии, а смог сконцентрироваться на новых.

Информация по видеофайлу

Format : Matroska
Format version : Version 4
File size : 1.91 GiB
Duration : 45 min 31 s
Overall bit rate : 6 006 kb/s
Encoded date : UTC 2016-06-26 17:35:02
Writing application : mkvmerge v7.7.0 ('Six Voices') 64bit built on Feb 28 2015 23:39:33
Writing library : libebml v1.3.1 + libmatroska v1.4.2
Video
ID : 1
Format : AVC
Format/Info : Advanced Video Codec
Format profile : High@L4.1
Format settings : CABAC / 4 Ref Frames
Format settings, CABAC : Yes
Format settings, Reference fra : 4 frames
Codec ID : V_MPEG4/ISO/AVC
Duration : 45 min 31 s
Bit rate : 5 242 kb/s
Width : 1 920 pixels
Height : 1 080 pixels
Display aspect ratio : 16:9
Frame rate mode : Constant
Frame rate : 23.976 (24000/1001) FPS
Original frame rate : 23.976 (23976/1000) FPS
Color space : YUV
Chroma subsampling : 4:2:0
Bit depth : 8 bits
Scan type : Progressive
Bits/(Pixel*Frame) : 0.105
Stream size : 1.67 GiB (87%)
Writing library : x264 core 112 r1834 a51816a
Encoding settings : cabac=1 / ref=4 / deblock=1:-3:-2 / analyse=0x3:0x113 / me=hex / subme=7 / psy=1 / psy_rd=1.00:0.00 / mixed_ref=1 / me_range=16 / chroma_me=1 / trellis=1 / 8x8dct=1 / cqm=0 / deadzone=21,11 / fast_pskip=1 / chroma_qp_offset=-2 / threads=6 / sliced_threads=0 / nr=0 / decimate=1 / interlaced=0 / constrained_intra=0 / bframes=5 / b_pyramid=2 / b_adapt=1 / b_bias=0 / direct=1 / weightb=1 / open_gop=0 / weightp=2 / keyint=250 / keyint_min=25 / scenecut=40 / intra_refresh=0 / rc_lookahead=40 / rc=2pass / mbtree=1 / bitrate=5242 / ratetol=1.0 / qcomp=0.60 / qpmin=0 / qpmax=51 / qpstep=4 / cplxblur=20.0 / qblur=0.5 / vbv_maxrate=10000 / vbv_bufsize=256000 / ip_ratio=1.40 / aq=1:1.00 / nal_hrd=none
Default : Yes
Forced : No
Audio #1
ID : 2
Format : AC-3
Format/Info : Audio Coding 3
Commercial name : Dolby Digital
Codec ID : A_AC3
Duration : 45 min 31 s
Bit rate mode : Constant
Bit rate : 384 kb/s
Channel(s) : 2 channels
Channel layout : L R
Sampling rate : 48.0 kHz
Frame rate : 31.250 FPS (1536 SPF)
Compression mode : Lossy
Stream size : 125 MiB (6%)
Service kind : Complete Main
Default : Yes
Forced : No
Audio #2
ID : 3
Format : AC-3
Format/Info : Audio Coding 3
Commercial name : Dolby Digital
Codec ID : A_AC3
Duration : 45 min 31 s
Bit rate mode : Constant
Bit rate : 384 kb/s
Channel(s) : 2 channels
Channel layout : L R
Sampling rate : 48.0 kHz
Frame rate : 31.250 FPS (1536 SPF)
Compression mode : Lossy
Stream size : 125 MiB (6%)
Service kind : Complete Main
Default : No
Forced : No
Скриншоты

Королева юга / Queen of the South [S02] (2017) WEBRip 1080p от LostFilm

Название: Королева юга
Оригинальное название: Queen of the South
Год Выпуска: 2017
Жанр: Боевик, триллер, драма
Выпущено: США
Режиссёр: Шарлотта Зилинг
В ролях: Алиси Брага, Жоаким ди Алмейда, Жустина Мачадо, Питер Гадиот, Хемки Мадера, Джеймс Мартинес, Даррен Шиэн.
Описание: Тереза покидает Мексику после того, как убивают её приятеля-наркокурьера. Обосновавшись в Испании, она стремится стать всевластным в стране контрабандистом наркотиков и отомстить за смерть своего любовника.

Качество: WEB-DLRip (чистый видеоряд)
Видео: MPEG4 Video (H264) 1920x1080 23.976fps
Аудио: Dolby AC3 48000Hz stereo 384kbps (Английский)
Аудио: Dolby AC3 48000Hz stereo 384kbps (Русский) Профессиональный (многоголосый, закадровый) (LostFilm)
Продолжительность: 13 x ~ 00:43:00
Субтитры: Нет
Реклама: Отсутствует

Информация по видеофайлу

Format : Matroska
Format version : Version 4
File size : 1.91 GiB
Duration : 45 min 31 s
Overall bit rate : 6 006 kb/s
Encoded date : UTC 2016-06-26 17:35:02
Writing application : mkvmerge v7.7.0 ('Six Voices') 64bit built on Feb 28 2015 23:39:33
Writing library : libebml v1.3.1 + libmatroska v1.4.2
Video
ID : 1
Format : AVC
Format/Info : Advanced Video Codec
Format profile : High@L4.1
Format settings : CABAC / 4 Ref Frames
Format settings, CABAC : Yes
Format settings, Reference fra : 4 frames
Codec ID : V_MPEG4/ISO/AVC
Duration : 45 min 31 s
Bit rate : 5 242 kb/s
Width : 1 920 pixels
Height : 1 080 pixels
Display aspect ratio : 16:9
Frame rate mode : Constant
Frame rate : 23.976 (24000/1001) FPS
Original frame rate : 23.976 (23976/1000) FPS
Color space : YUV
Chroma subsampling : 4:2:0
Bit depth : 8 bits
Scan type : Progressive
Bits/(Pixel*Frame) : 0.105
Stream size : 1.67 GiB (87%)
Writing library : x264 core 112 r1834 a51816a
Encoding settings : cabac=1 / ref=4 / deblock=1:-3:-2 / analyse=0x3:0x113 / me=hex / subme=7 / psy=1 / psy_rd=1.00:0.00 / mixed_ref=1 / me_range=16 / chroma_me=1 / trellis=1 / 8x8dct=1 / cqm=0 / deadzone=21,11 / fast_pskip=1 / chroma_qp_offset=-2 / threads=6 / sliced_threads=0 / nr=0 / decimate=1 / interlaced=0 / constrained_intra=0 / bframes=5 / b_pyramid=2 / b_adapt=1 / b_bias=0 / direct=1 / weightb=1 / open_gop=0 / weightp=2 / keyint=250 / keyint_min=25 / scenecut=40 / intra_refresh=0 / rc_lookahead=40 / rc=2pass / mbtree=1 / bitrate=5242 / ratetol=1.0 / qcomp=0.60 / qpmin=0 / qpmax=51 / qpstep=4 / cplxblur=20.0 / qblur=0.5 / vbv_maxrate=10000 / vbv_bufsize=256000 / ip_ratio=1.40 / aq=1:1.00 / nal_hrd=none
Default : Yes
Forced : No
Audio #1
ID : 2
Format : AC-3
Format/Info : Audio Coding 3
Commercial name : Dolby Digital
Codec ID : A_AC3
Duration : 45 min 31 s
Bit rate mode : Constant
Bit rate : 384 kb/s
Channel(s) : 2 channels
Channel layout : L R
Sampling rate : 48.0 kHz
Frame rate : 31.250 FPS (1536 SPF)
Compression mode : Lossy
Stream size : 125 MiB (6%)
Service kind : Complete Main
Default : Yes
Forced : No
Audio #2
ID : 3
Format : AC-3
Format/Info : Audio Coding 3
Commercial name : Dolby Digital
Codec ID : A_AC3
Duration : 45 min 31 s
Bit rate mode : Constant
Bit rate : 384 kb/s
Channel(s) : 2 channels
Channel layout : L R
Sampling rate : 48.0 kHz
Frame rate : 31.250 FPS (1536 SPF)
Compression mode : Lossy
Stream size : 125 MiB (6%)
Service kind : Complete Main
Default : No
Forced : No
Скриншоты

Королева юга / Queen of the South [S03] (2018) WEB-DLRip 1080p от LostFilm

Информация о фильме
Название: Королева юга
Оригинальное название: Queen of the South
Год выхода: 2018
Жанр: Боевик, триллер, драма
Режиссер: Шарлотта Зилинг
В ролях: Алиси Брага, Жоаким ди Алмейда, Жустина Мачадо, Питер Гадиот, Хемки Мадера, Джеймс Мартинес, Даррен Шиэн.
О фильме:
Тереза покидает Мексику после того, как убивают её приятеля-наркокурьера. Обосновавшись в Испании, она стремится стать всевластным в стране контрабандистом наркотиков и отомстить за смерть своего любовника.

Страна: США
Студия: Friendly Films, Origen Producciones Cinematograficas S.A., Plural Entertainment, USA Television Network
Файл
Качество: WEB-DLRip (чистый видеоряд)
Видео: MPEG4 Video (H264) 1920x1080 23.976fps
Аудио: Dolby AC3 48000Hz stereo 384kbps (Английский)
Аудио: Dolby AC3 48000Hz stereo 384kbps (Русский) Профессиональный (многоголосый, закадровый) [LostFilm]

Информация по видеофайлу

Format : Matroska
Format version : Version 4
File size : 1.91 GiB
Duration : 45 min 31 s
Overall bit rate : 6 006 kb/s
Encoded date : UTC 2016-06-26 17:35:02
Writing application : mkvmerge v7.7.0 ('Six Voices') 64bit built on Feb 28 2015 23:39:33
Writing library : libebml v1.3.1 + libmatroska v1.4.2
Video
ID : 1
Format : AVC
Format/Info : Advanced Video Codec
Format profile : High@L4.1
Format settings : CABAC / 4 Ref Frames
Format settings, CABAC : Yes
Format settings, Reference fra : 4 frames
Codec ID : V_MPEG4/ISO/AVC
Duration : 45 min 31 s
Bit rate : 5 242 kb/s
Width : 1 920 pixels
Height : 1 080 pixels
Display aspect ratio : 16:9
Frame rate mode : Constant
Frame rate : 23.976 (24000/1001) FPS
Original frame rate : 23.976 (23976/1000) FPS
Color space : YUV
Chroma subsampling : 4:2:0
Bit depth : 8 bits
Scan type : Progressive
Bits/(Pixel*Frame) : 0.105
Stream size : 1.67 GiB (87%)
Writing library : x264 core 112 r1834 a51816a
Encoding settings : cabac=1 / ref=4 / deblock=1:-3:-2 / analyse=0x3:0x113 / me=hex / subme=7 / psy=1 / psy_rd=1.00:0.00 / mixed_ref=1 / me_range=16 / chroma_me=1 / trellis=1 / 8x8dct=1 / cqm=0 / deadzone=21,11 / fast_pskip=1 / chroma_qp_offset=-2 / threads=6 / sliced_threads=0 / nr=0 / decimate=1 / interlaced=0 / constrained_intra=0 / bframes=5 / b_pyramid=2 / b_adapt=1 / b_bias=0 / direct=1 / weightb=1 / open_gop=0 / weightp=2 / keyint=250 / keyint_min=25 / scenecut=40 / intra_refresh=0 / rc_lookahead=40 / rc=2pass / mbtree=1 / bitrate=5242 / ratetol=1.0 / qcomp=0.60 / qpmin=0 / qpmax=51 / qpstep=4 / cplxblur=20.0 / qblur=0.5 / vbv_maxrate=10000 / vbv_bufsize=256000 / ip_ratio=1.40 / aq=1:1.00 / nal_hrd=none
Default : Yes
Forced : No
Audio #1
ID : 2
Format : AC-3
Format/Info : Audio Coding 3
Commercial name : Dolby Digital
Codec ID : A_AC3
Duration : 45 min 31 s
Bit rate mode : Constant
Bit rate : 384 kb/s
Channel(s) : 2 channels
Channel layout : L R
Sampling rate : 48.0 kHz
Frame rate : 31.250 FPS (1536 SPF)
Compression mode : Lossy
Stream size : 125 MiB (6%)
Service kind : Complete Main
Default : Yes
Forced : No
Audio #2
ID : 3
Format : AC-3
Format/Info : Audio Coding 3
Commercial name : Dolby Digital
Codec ID : A_AC3
Duration : 45 min 31 s
Bit rate mode : Constant
Bit rate : 384 kb/s
Channel(s) : 2 channels
Channel layout : L R
Sampling rate : 48.0 kHz
Frame rate : 31.250 FPS (1536 SPF)
Compression mode : Lossy
Stream size : 125 MiB (6%)
Service kind : Complete Main
Default : No
Forced : No
Скриншоты

Королева юга / Queen of the South [S04] (2019) WEB-DLRip 1080p от LostFilm

Информация о фильме
Название: Королева юга
Оригинальное название: Queen of the South
Год выхода: 2019
Жанр: Боевик, триллер, драма, криминал
Режиссер: Эдуардо Санчес, Дэвид Бойд, Дэйв Родригез
В ролях: Алиси Брага, Жоаким ди Алмейда, Жустина Мачадо, Питер Гадиот, Хемки Мадера, Джеймс Мартинес, Даррен Шиэн.
О фильме:
После убийства возлюбленного бедная юная Тереса Мендоса была вынуждена покинуть родную Мексику и затеряться в Техасе. Вскоре, оценив ум и предприимчивость девушки, ее приглашает к себе местная наркобаронесса Камила. Она намерена разрушить бизнес своего мужа дона Эпифанио руками гостьи, но Тереса слишком умна, чтобы стать пешкой в чьей-то игре. В США у неординарной мексиканки начинается совершенно новая жизнь, ведь она понимает, что и сама много смыслит в торговле запрещенными веществами и является гораздо более прагматичной и расчетливой, нежели ее боссы. Полезные люди помогают Мендосе войти в этот бизнес, и она сначала осторожно, а потом все смелее начинает восходить по лестнице, усыпанной первосортным кокаином. Так, поднявшись с самого дна, главная героиня заполучает целый мир. Виртуозно манипулируя друзьями и врагами, конкурентами и коллегами, полицией и своими мужчинами, успевая повсюду и никогда не оставляя улик, молодая, сильная, уверенная в себе Тереса Мендоса занимает трон Королевы Юга. Теперь она не боится ничего и никого, правда, расплата за такой стремительный взлет может оказаться очень и очень серьезной…

Официальный сайт
Страна: США, Испания, Мальта, Мексика
Студия: Frequency Films, Friendly Films (II), Latina Pictures
Файл
Качество: WEB-DLRip (чистый видеоряд)
Видео: MPEG4 Video (H264) 1920x1080 23.976fps
Аудио: Dolby AC3 48000Hz stereo 384kbps (Английский)
Аудио: Dolby AC3 48000Hz stereo 384kbps (Русский) Профессиональный (многоголосый, закадровый) [LostFilm]
Продолжительность: 13 x ~ 00:45:00

Информация по видеофайлу

Format : Matroska
Format version : Version 4
File size : 1.91 GiB
Duration : 45 min 31 s
Overall bit rate : 6 006 kb/s
Encoded date : UTC 2016-06-26 17:35:02
Writing application : mkvmerge v7.7.0 ('Six Voices') 64bit built on Feb 28 2015 23:39:33
Writing library : libebml v1.3.1 + libmatroska v1.4.2
Video
ID : 1
Format : AVC
Format/Info : Advanced Video Codec
Format profile : High@L4.1
Format settings : CABAC / 4 Ref Frames
Format settings, CABAC : Yes
Format settings, Reference fra : 4 frames
Codec ID : V_MPEG4/ISO/AVC
Duration : 45 min 31 s
Bit rate : 5 242 kb/s
Width : 1 920 pixels
Height : 1 080 pixels
Display aspect ratio : 16:9
Frame rate mode : Constant
Frame rate : 23.976 (24000/1001) FPS
Original frame rate : 23.976 (23976/1000) FPS
Color space : YUV
Chroma subsampling : 4:2:0
Bit depth : 8 bits
Scan type : Progressive
Bits/(Pixel*Frame) : 0.105
Stream size : 1.67 GiB (87%)
Writing library : x264 core 112 r1834 a51816a
Encoding settings : cabac=1 / ref=4 / deblock=1:-3:-2 / analyse=0x3:0x113 / me=hex / subme=7 / psy=1 / psy_rd=1.00:0.00 / mixed_ref=1 / me_range=16 / chroma_me=1 / trellis=1 / 8x8dct=1 / cqm=0 / deadzone=21,11 / fast_pskip=1 / chroma_qp_offset=-2 / threads=6 / sliced_threads=0 / nr=0 / decimate=1 / interlaced=0 / constrained_intra=0 / bframes=5 / b_pyramid=2 / b_adapt=1 / b_bias=0 / direct=1 / weightb=1 / open_gop=0 / weightp=2 / keyint=250 / keyint_min=25 / scenecut=40 / intra_refresh=0 / rc_lookahead=40 / rc=2pass / mbtree=1 / bitrate=5242 / ratetol=1.0 / qcomp=0.60 / qpmin=0 / qpmax=51 / qpstep=4 / cplxblur=20.0 / qblur=0.5 / vbv_maxrate=10000 / vbv_bufsize=256000 / ip_ratio=1.40 / aq=1:1.00 / nal_hrd=none
Default : Yes
Forced : No
Audio #1
ID : 2
Format : AC-3
Format/Info : Audio Coding 3
Commercial name : Dolby Digital
Codec ID : A_AC3
Duration : 45 min 31 s
Bit rate mode : Constant
Bit rate : 384 kb/s
Channel(s) : 2 channels
Channel layout : L R
Sampling rate : 48.0 kHz
Frame rate : 31.250 FPS (1536 SPF)
Compression mode : Lossy
Stream size : 125 MiB (6%)
Service kind : Complete Main
Default : Yes
Forced : No
Audio #2
ID : 3
Format : AC-3
Format/Info : Audio Coding 3
Commercial name : Dolby Digital
Codec ID : A_AC3
Duration : 45 min 31 s
Bit rate mode : Constant
Bit rate : 384 kb/s
Channel(s) : 2 channels
Channel layout : L R
Sampling rate : 48.0 kHz
Frame rate : 31.250 FPS (1536 SPF)
Compression mode : Lossy
Stream size : 125 MiB (6%)
Service kind : Complete Main
Default : No
Forced : No
Скриншоты
Показать сообщения:    

Текущее время: 23-Ноя 14:11

Часовой пояс: UTC - 5



Вы не можете начинать темы
Вы не можете отвечать на сообщения
Вы не можете редактировать свои сообщения
Вы не можете удалять свои сообщения
Вы не можете голосовать в опросах
Вы не можете прикреплять файлы к сообщениям
Вы не можете скачивать файлы