Регистрация ·
Имя: Пароль:  
· Забыли пароль? · Вопросы от гостей
Охотник на монстров
HDRezka Studio
BDRip 720p
Охотник на монстров
HDRezka Studio
BDRip 1080p
Чудо-женщина: 1984
Мосфильм-Мастер
WEB-DL 720p
Чудо-женщина: 1984
Мосфильм-Мастер
WEB-DL 1080p
Чудо-женщина: 1984
Мосфильм-Мастер
WEB-DL 2160p
Kliplar To'plami
O'zbek Tilida
Rizanova
12 Round
O'zbek Tilida
BluRay 1080p
Qo'riqchi ayol
O'zbek Tilida
BluRay 1080p
SHAFT
O'zbek Tilida
BDRip
SHAFT
O'zbek Tilida
WEBRip 1080p
Javohir politsiyachi
O'zbek Tilida
BDRip-AVC
So'nggi Ritsarlar
O'zbek Tilida
BluRay 1080p
Агент Ева
O'zbek Tilida
WEB-Rip
Анна
iTunes
BDRip 1080p
Анна
iTunes
BDRip-AVC
Анна
iTunes
BDRip
Mulan
O'zbek Tilida
WEBRip 1080p HEVC x265
Мулан
IdeaFilm
WEB-DL 720p
Мулан
IdeaFilm
WEB-DL 1080p
Мулан
IdeaFilm
WEB-DL 2160p
Temir Odam Uchligi
O'zbek Tilida
BluRay, 1080p, HEVC, x265, 10bit
Kliplar To'plami
O'zbek Tilida
Rizanova
Singularity
Repack
Mechanics
Tom Raider
Repack
Xatab
Far Cry New Dawn
Repack
Xatab
Far Cry 3
Repack
Xatab
Фитнес
Россия
WEB-DL 720p
Resident Evil
Гексалогия
Repack
Godzilla 2; Mahluqlar Qiroli
O'zbek Tilida
WEBRip HEVC 720p
Olimpning Qulashi
O'zbek Tilida
BDRip
X-Odamlar Qora Qaqnus
O'zbek Tilida
BDRip 1080p
Sevishganlar
O'zbek Tilida
HDRip
Maymunlar Sayyorasi Uchlik
O'zbek Tilida
BDRip
Koko Siri
O'zbek Tilida
BDRip-AVC
Спартак
РенТВ
BDRip 720p
Shelbilar oilasi
O'zbek Tilida
x265 1080p WEBRip 10bit
Однажды на востоке
Лицензия
BDRip 1080p
Yason va Argonaftlar
O'zbek Tilida
DVDRip x264
Shelbilar oilasi
O'zbek Tilida
BluRay 1080p x264
Qotillik Uchun Uch Kun
O'zbek Tilida
BluRay 1080p x264
Ko'd 211
O'zbek + Rus + Ing
BluRay 1080p
Интрижка
iTunes
WEB-DLRip
WarFace
Лицензия
Русский
Уважаемые гости сайта! Добро Пожаловать на наш торрент трекер,где Вы можете бесплатно скачать любой Софт,Фильмы,Музыку и многое другое! А так же постоянно ведется набор модераторов и релизеров. Зарегистрируйтесь сейчас, чтобы получить доступ ко всем функциям. После регистрации или входа на сайт вы сможете создавать темы, отвечать на сообщения и скачивать файлы.

Sartarosh Billu / Парикмахер Биллу / Billu Barber (Pridarshan) [2009, komediya, drama, BDRip 720p] O'zbek tilida

Статистика раздачи
Скачал: [ 2 ]
 
     
 
 
Автор Сообщение

MRLG ®

Не в сети

5463

Пол: Мужской

Стаж: 1 год 6 месяцев

Сообщений: 2

Карма: 20

[+]

Провайдер: UzOnline UzOnline

Наличие запрета:



Награды: Нет

[Профиль] ЛС

Создавать темы 15-Дек-2020 12:17

Цитировать

Sartarosh Billu / Парикмахер Биллу | Billu Barber
Chiqqan yili: 2009
Davlat: Hindiston
Janr: komediya, drama
Davomiyligi: 02:17:15
Tarjima: Professsional (ko'p ovozli kadr ortidan) Sinemauz
Rejissyor: Pridarshan
Rollarda: Irfan Xon, Shoxruh Xon, Lara Datta, Om Puri, Rajpal Yadav, G. Asrani, Karina Kapur, Dipika Padukone, Axsan Bakshi
Tavsif: Oddiy odam, sartarosh Billas Rao Pardesi Budbuda qishlog'ida (Uttar-Pradesh) rafiqasi Bindiya va ikki bolasi bilan tinchgina yashaydi. Uning barcha asboblaridan faqat zanglagan o'tmas qaychi va eski taroq bor. Hatto yangi taroq va soch oldigan ustara sotib olishga ham puli yo'q. U bolalari maktab to'lovini to'lay olmaydi. Xotini chiroq uchun qo'shnilaridan yog 'oladi, chunki uydagi elektr energiyasi to'lamaganligi uchun o'chirilgan. Va shunga qaramay, Billu aylanadigan stul va zamonaviy soch kesadigan ustara olishni orzu qiladi.
Bir kuni super yulduz Zaxir Xon film syomkalarini olish uchun qishloqqa keladi. Billu va Zohirning bolaligidan do'st ekanligi haqidagi mish-mishlar butun qishloqqa tarqaldi. Endi qishloqda hamma sartaroshni qo'llab-quvvatlashga harakat qilmoqdalar, shunda u ba'zida ular uchun shahardan kelgan bir katta odam oldida ularga so'z aytdi. Billu bir vaqtlar muammolardan xalos bo'lgan eski do'sti bilan uchrashishni istamaydi. Billuga Zohirga o'tgan hayot xotiralari qiziq emasdek tuyuladi, ammo Zohir bunday odam emas ...
Video sifati: BDRip 720p
Video format: MKV
Video kodek: AVC
Audio kodek: MP3
Video: MPEG4 Video (H264) 1280x528 23.976fps
Audio: MP3 48000Hz stereo 128kbps | O'zbek tilida

MediaInfo

General
Unique ID : 215834550143413678004587651152611435596 (0xA26038E9AA6817E6AF8966222990E44C)
Complete name : D:\Кино\Дубляж фильмлар\HD Films Collection\Billu.2009.BDRip.720p-[MRLG].mkv
Format : Matroska
Format version : Version 2
File size : 3.05 GiB
Duration : 2 h 17 min
Overall bit rate : 3 182 kb/s
Encoded date : UTC 2020-06-11 06:26:25
Writing application : mkvmerge v7.8.0 ('River Man') 32bit built on Apr 3 2015 12:11:22
Writing library : libebml v1.3.1 + libmatroska v1.4.2
Video
ID : 1
Format : AVC
Format/Info : Advanced Video Codec
Format profile : High@L3.1
Format settings : CABAC / 3 Ref Frames
Format settings, CABAC : Yes
Format settings, Reference fra : 3 frames
Codec ID : V_MPEG4/ISO/AVC
Duration : 2 h 17 min
Bit rate : 3 052 kb/s
Width : 1 280 pixels
Height : 528 pixels
Display aspect ratio : 2.40:1
Frame rate mode : Constant
Frame rate : 23.976 (24000/1001) FPS
Color space : YUV
Chroma subsampling : 4:2:0
Bit depth : 8 bits
Scan type : Progressive
Bits/(Pixel*Frame) : 0.188
Stream size : 2.87 GiB (94%)
Title : 1280x528, 23.976 fps, x264, 2.98 Mbps
Writing library : x264 core 68 r1179M 96e2229
Encoding settings : cabac=1 / ref=3 / deblock=1:0:0 / analyse=0x3:0 / me=hex / subme=2 / psy_rd=0.0:0.0 / mixed_ref=0 / me_range=16 / chroma_me=1 / trellis=1 / 8x8dct=1 / cqm=0 / deadzone=21,11 / chroma_qp_offset=0 / threads=6 / nr=0 / decimate=1 / mbaff=0 / bframes=3 / b_pyramid=0 / b_adapt=1 / b_bias=0 / direct=1 / wpredb=1 / keyint=250 / keyint_min=25 / scenecut=40 / rc=2pass / bitrate=3052 / ratetol=1.0 / qcomp=0.60 / qpmin=10 / qpmax=51 / qpstep=4 / cplxblur=20.0 / qblur=0.5 / ip_ratio=1.40 / pb_ratio=1.30 / aq=1:1.00
Default : Yes
Forced : No
Audio
ID : 2
Format : MPEG Audio
Format version : Version 1
Format profile : Layer 3
Format settings : Joint stereo / MS Stereo
Codec ID : A_MPEG/L3
Codec ID/Hint : MP3
Duration : 2 h 17 min
Bit rate mode : Constant
Bit rate : 128 kb/s
Channel(s) : 2 channels
Sampling rate : 48.0 kHz
Frame rate : 41.667 FPS (1152 SPF)
Compression mode : Lossy
Stream size : 126 MiB (4%)
Title : Release by MRLG
Writing library : LAME3.100
Encoding settings : -m j -V 4 -q 2 -lowpass 17 -b 128
Language : Uzbek
Default : Yes
Forced : No
Показать сообщения:    

Текущее время: 07-Мар 06:46

Часовой пояс: UTC - 5



Вы не можете начинать темы
Вы не можете отвечать на сообщения
Вы не можете редактировать свои сообщения
Вы не можете удалять свои сообщения
Вы не можете голосовать в опросах
Вы не можете прикреплять файлы к сообщениям
Вы не можете скачивать файлы