Регистрация ·
Имя: Пароль:  
· Забыли пароль? · Вопросы от гостей
Охотник на монстров
HDRezka Studio
BDRip 720p
Охотник на монстров
HDRezka Studio
BDRip 1080p
Чудо-женщина: 1984
Мосфильм-Мастер
WEB-DL 720p
Чудо-женщина: 1984
Мосфильм-Мастер
WEB-DL 1080p
Чудо-женщина: 1984
Мосфильм-Мастер
WEB-DL 2160p
Kliplar To'plami
O'zbek Tilida
Rizanova
12 Round
O'zbek Tilida
BluRay 1080p
Qo'riqchi ayol
O'zbek Tilida
BluRay 1080p
SHAFT
O'zbek Tilida
BDRip
SHAFT
O'zbek Tilida
WEBRip 1080p
Javohir politsiyachi
O'zbek Tilida
BDRip-AVC
So'nggi Ritsarlar
O'zbek Tilida
BluRay 1080p
Агент Ева
O'zbek Tilida
WEB-Rip
Анна
iTunes
BDRip 1080p
Анна
iTunes
BDRip-AVC
Анна
iTunes
BDRip
Mulan
O'zbek Tilida
WEBRip 1080p HEVC x265
Мулан
IdeaFilm
WEB-DL 720p
Мулан
IdeaFilm
WEB-DL 1080p
Мулан
IdeaFilm
WEB-DL 2160p
Temir Odam Uchligi
O'zbek Tilida
BluRay, 1080p, HEVC, x265, 10bit
Kliplar To'plami
O'zbek Tilida
Rizanova
Singularity
Repack
Mechanics
Tom Raider
Repack
Xatab
Far Cry New Dawn
Repack
Xatab
Far Cry 3
Repack
Xatab
Фитнес
Россия
WEB-DL 720p
Resident Evil
Гексалогия
Repack
Godzilla 2; Mahluqlar Qiroli
O'zbek Tilida
WEBRip HEVC 720p
Olimpning Qulashi
O'zbek Tilida
BDRip
X-Odamlar Qora Qaqnus
O'zbek Tilida
BDRip 1080p
Sevishganlar
O'zbek Tilida
HDRip
Maymunlar Sayyorasi Uchlik
O'zbek Tilida
BDRip
Koko Siri
O'zbek Tilida
BDRip-AVC
Спартак
РенТВ
BDRip 720p
Shelbilar oilasi
O'zbek Tilida
x265 1080p WEBRip 10bit
Однажды на востоке
Лицензия
BDRip 1080p
Yason va Argonaftlar
O'zbek Tilida
DVDRip x264
Shelbilar oilasi
O'zbek Tilida
BluRay 1080p x264
Qotillik Uchun Uch Kun
O'zbek Tilida
BluRay 1080p x264
Ko'd 211
O'zbek + Rus + Ing
BluRay 1080p
Интрижка
iTunes
WEB-DLRip
WarFace
Лицензия
Русский
Уважаемые гости сайта! Добро Пожаловать на наш торрент трекер,где Вы можете бесплатно скачать любой Софт,Фильмы,Музыку и многое другое! А так же постоянно ведется набор модераторов и релизеров. Зарегистрируйтесь сейчас, чтобы получить доступ ко всем функциям. После регистрации или входа на сайт вы сможете создавать темы, отвечать на сообщения и скачивать файлы.

Krudslar oilasi 2 / Семейка Крудс: Новоселье / The Croods: A New Age (Joel Crawford) [2020, AQSH, Multfilm, fentezi, kulguli, sarguzasht, oilaviy, WEBRip 1080p]

Статистика раздачи
Скачал: [ 6 ]
 
     
 
 
Автор Сообщение

Ahmadullo2019 ®

Не в сети

5505

Пол: Мужской

Стаж: 1 год 4 месяца

Сообщений: 17

Карма: 10

[+]

Провайдер: UzOnline UzOnline

Наличие запрета:



Награды: Нет

[Профиль] ЛС

Создавать темы 12-Янв-2021 01:25

Цитировать

Krudslar oilasi 2 / Семейка Крудс: Новоселье / The Croods: A New Age
Chiqqan yili: 2020
Davlat: AQSH
Janr: Multfilm, fentezi, kulguli, sarguzasht, oilaviy
Davomiyligi: 01:35:14
Tarjima: Professional (Ko'p ovozli) O'zbek tilida My5TV
Tarjima 2: Professional (Original) Ingliz tilida
Rejissyor: Joel Crawford
Rollarda: Nicholas Cage, Emma Stone, Ryan Reynolds, Ketrin Kiner, Kloris Lichman, Clark Dyuk, Leslie Mann, Piter Dinkleage, Kelly Marie Train, Kailey Crawford-Tavsif: Kruds klanining a'zolari kabi bunday qahramonlar oddiygina o'tirishga qodir emaslar. Ular jasorat bilan eng dahshatli sarguzashtlarga duch kelishadi va taqdirning har qanday muammosiga oldindan aytib bo'lmaydigan va qobiliyatli javob berishga tayyor.-Videoning sifati: WEBRip 1080p
Video format: MKV
Video: AVC, 2500 kbps, 1920x816
Audio: O'zbek tilida (AAC, 2 ch, 128 Kbit/s)
Audio 2: Ingliz tilida (AAC, 224 kbps, 6 ch)-Subtitrlar: Ingliz tilida

Media Info

General
Unique ID : 298262012901816349486101574122195719155 (0xE0632C97DA2F7DCAE35BA4953FD113F3)
Complete name : J:\MEDIA\Krudslar.oilasi.2.2020.WEBRip.1080p.mkv
Format : Matroska
Format version : Version 4
File size : 1.94 GiB
Duration : 1 h 35 min
Overall bit rate : 2 922 kb/s
Encoded date : UTC 2021-01-10 12:20:59
Writing application : mkvmerge v21.0.0 ('Tardigrades Will Inherit The Earth') 64-bit
Writing library : libebml v1.3.5 + libmatroska v1.4.8
Video
ID : 1
Format : AVC
Format/Info : Advanced Video Codec
Format profile : High@L4.1
Format settings : CABAC / 4 Ref Frames
Format settings, CABAC : Yes
Format settings, Reference fra : 4 frames
Codec ID : V_MPEG4/ISO/AVC
Duration : 1 h 35 min
Bit rate : 2 500 kb/s
Width : 1 920 pixels
Height : 816 pixels
Display aspect ratio : 2.35:1
Frame rate mode : Constant
Frame rate : 23.976 (23976/1000) FPS
Color space : YUV
Chroma subsampling : 4:2:0
Bit depth : 8 bits
Scan type : Progressive
Bits/(Pixel*Frame) : 0.067
Stream size : 1.66 GiB (86%)
Writing library : x264 core 152 r2851M ba24899
Encoding settings : cabac=1 / ref=4 / deblock=1:-1:-1 / analyse=0x3:0x113 / me=umh / subme=9 / psy=1 / psy_rd=1.00:0.15 / mixed_ref=1 / me_range=24 / chroma_me=1 / trellis=2 / 8x8dct=1 / cqm=0 / deadzone=21,11 / fast_pskip=1 / chroma_qp_offset=-3 / threads=16 / lookahead_threads=4 / sliced_threads=0 / nr=0 / decimate=1 / interlaced=0 / bluray_compat=0 / constrained_intra=0 / bframes=3 / b_pyramid=2 / b_adapt=2 / b_bias=0 / direct=3 / weightb=1 / open_gop=0 / weightp=2 / keyint=250 / keyint_min=25 / scenecut=40 / intra_refresh=0 / rc_lookahead=50 / rc=2pass / mbtree=1 / bitrate=2500 / ratetol=1.0 / qcomp=0.60 / qpmin=0 / qpmax=69 / qpstep=4 / cplxblur=20.0 / qblur=0.5 / vbv_maxrate=31250 / vbv_bufsize=31250 / nal_hrd=none / filler=0 / ip_ratio=1.40 / aq=3:1.00
Default : Yes
Forced : No
Audio #1
ID : 2
Format : AAC LC
Format/Info : Advanced Audio Codec Low Complexity
Codec ID : A_AAC-2
Duration : 1 h 35 min
Bit rate : 192 kb/s
Channel(s) : 2 channels
Channel layout : L R
Sampling rate : 44.1 kHz
Frame rate : 43.066 FPS (1024 SPF)
Compression mode : Lossy
Delay relative to video : -43 ms
Stream size : 133 MiB (7%)
Title : uzb cinerama.pro(My5TV)
Language : Uzbek
Default : Yes
Forced : Yes
Audio #2
ID : 3
Format : AAC LC
Format/Info : Advanced Audio Codec Low Complexity
Codec ID : A_AAC-2
Duration : 1 h 35 min
Bit rate : 224 kb/s
Channel(s) : 6 channels
Channel layout : C L R Ls Rs LFE
Sampling rate : 48.0 kHz
Frame rate : 46.875 FPS (1024 SPF)
Compression mode : Lossy
Delay relative to video : -43 ms
Stream size : 153 MiB (8%)
Title : english
Default : No
Forced : No
Text #1
ID : 4
Format : UTF-8
Codec ID : S_TEXT/UTF8
Codec ID/Info : UTF-8 Plain Text
Duration : 1 h 0 min
Bit rate : 0 b/s
Count of elements : 4
Stream size : 128 Bytes (0%)
Title : uzb cinerama.pro(My5TV)
Language : Uzbek
Default : Yes
Forced : Yes
Text #2
ID : 5
Format : UTF-8
Codec ID : S_TEXT/UTF8
Codec ID/Info : UTF-8 Plain Text
Duration : 1 h 34 min
Bit rate : 75 b/s
Count of elements : 1717
Stream size : 51.9 KiB (0%)
Title : english
Default : No
Forced : No

Lavhalar

Показать сообщения:    

Текущее время: 07-Мар 07:02

Часовой пояс: UTC - 5



Вы не можете начинать темы
Вы не можете отвечать на сообщения
Вы не можете редактировать свои сообщения
Вы не можете удалять свои сообщения
Вы не можете голосовать в опросах
Вы не можете прикреплять файлы к сообщениям
Вы не можете скачивать файлы