Регистрация ·
Имя: Пароль:  
· Забыли пароль? · Вопросы от гостей
Охотник на монстров
HDRezka Studio
BDRip 720p
Охотник на монстров
HDRezka Studio
BDRip 1080p
Чудо-женщина: 1984
Мосфильм-Мастер
WEB-DL 720p
Чудо-женщина: 1984
Мосфильм-Мастер
WEB-DL 1080p
Чудо-женщина: 1984
Мосфильм-Мастер
WEB-DL 2160p
Kliplar To'plami
O'zbek Tilida
Rizanova
12 Round
O'zbek Tilida
BluRay 1080p
Qo'riqchi ayol
O'zbek Tilida
BluRay 1080p
SHAFT
O'zbek Tilida
BDRip
SHAFT
O'zbek Tilida
WEBRip 1080p
Javohir politsiyachi
O'zbek Tilida
BDRip-AVC
So'nggi Ritsarlar
O'zbek Tilida
BluRay 1080p
Агент Ева
O'zbek Tilida
WEB-Rip
Анна
iTunes
BDRip 1080p
Анна
iTunes
BDRip-AVC
Анна
iTunes
BDRip
Mulan
O'zbek Tilida
WEBRip 1080p HEVC x265
Мулан
IdeaFilm
WEB-DL 720p
Мулан
IdeaFilm
WEB-DL 1080p
Мулан
IdeaFilm
WEB-DL 2160p
Temir Odam Uchligi
O'zbek Tilida
BluRay, 1080p, HEVC, x265, 10bit
Kliplar To'plami
O'zbek Tilida
Rizanova
Singularity
Repack
Mechanics
Tom Raider
Repack
Xatab
Far Cry New Dawn
Repack
Xatab
Far Cry 3
Repack
Xatab
Фитнес
Россия
WEB-DL 720p
Resident Evil
Гексалогия
Repack
Godzilla 2; Mahluqlar Qiroli
O'zbek Tilida
WEBRip HEVC 720p
Olimpning Qulashi
O'zbek Tilida
BDRip
X-Odamlar Qora Qaqnus
O'zbek Tilida
BDRip 1080p
Sevishganlar
O'zbek Tilida
HDRip
Maymunlar Sayyorasi Uchlik
O'zbek Tilida
BDRip
Koko Siri
O'zbek Tilida
BDRip-AVC
Спартак
РенТВ
BDRip 720p
Shelbilar oilasi
O'zbek Tilida
x265 1080p WEBRip 10bit
Однажды на востоке
Лицензия
BDRip 1080p
Yason va Argonaftlar
O'zbek Tilida
DVDRip x264
Shelbilar oilasi
O'zbek Tilida
BluRay 1080p x264
Qotillik Uchun Uch Kun
O'zbek Tilida
BluRay 1080p x264
Ko'd 211
O'zbek + Rus + Ing
BluRay 1080p
Интрижка
iTunes
WEB-DLRip
WarFace
Лицензия
Русский
Уважаемые гости сайта! Добро Пожаловать на наш торрент трекер,где Вы можете бесплатно скачать любой Софт,Фильмы,Музыку и многое другое! А так же постоянно ведется набор модераторов и релизеров. Зарегистрируйтесь сейчас, чтобы получить доступ ко всем функциям. После регистрации или входа на сайт вы сможете создавать темы, отвечать на сообщения и скачивать файлы.

Sehrli tosh / Динотопия / Dinotopia / Seriya 3/3 (Marko Brambilla) [2002, fantaziya, hayoliy, sarguzasht, oilaviy, Blu-Ray] O'zbek tilida

Статистика раздачи
Качаю: [ 1 ]
Скачал: [ 12 ]
 
     
 
 
Автор Сообщение

gnom6862 ®

Не в сети

5454

Пол: Мужской

Стаж: 1 год 6 месяцев

Сообщений: 4

Карма: 0

[+]

Провайдер: UzOnline UzOnline

Наличие запрета:



Награды: Нет

[Профиль] ЛС

Создавать темы 03-Фев-2021 07:11

Цитировать

Sehrli tosh | Динотопия | Dinotopia
Год выпуска: 2002
Страна: Buyuk Britaniya, Germaniya, AQSh
Жанр: fantaziya, hayoliy, sarguzasht, oilaviy
Серии (нумерация): 3
Всего серий: 3
Продолжительность: 01:30:00
Перевод: Ko'p ovozli (kadr ortidan) Yoshlar TV
Режиссёр: Marko Brambilla
В ролях: Ventuort Miller, Tyrone Leytso, Devid Tevlis, Keti Karr, Jim Karter, Elis Krij, Kolin Salmon, Li Evans, Terri Jons, Styuart Uilson
Описание: Aka-ukalar Karl va Devid ta'tilda uchib ketayotgan samolyot noma'lum orolga qulab tushdi. Birodarlar Dinotopiya deb nomlangan mamlakat qirg'og'iga borishga muvaffaq bo'lishdi. Ushbu hayoliy yo'qolgan dunyoda odamlar va dinozavrlar tinchlik, hamjihatlik va o'zaro hurmatda yashaydilar. Ammo Dinotopiya poytaxti - palapartishlik shahri yaqinida vahshiy yirtqichlar yuribdi. Va eng dahshatlisi shundaki, ajoyib mamlakat uchun hayot manbai bo'lib xizmat qiladigan quyosh toshlari o'z kuchlarini yo'qota boshladi. Ko'p tillarni biladigan daho Stenaxosaurus Zipponing yordami bilan Karl va Devid o'zlarining uyiga aylangan tarixdan oldingi jannatni qutqarish uchun xavfli vazifani bajarishga kirishdilar ...
Качество: Blu-Ray
Формат: MKV
Видео кодек: x265
Аудио кодек: AAC
Видео: BluRay x265 HEVC, 1920x1080 (16:9), 23.976 fps, 4201 kb/s
Аудио: AAC, 44.1 kHz, 2 ch, 192 kbps, Uzbek
Аудио 2: AAC, 48.0 kHz, 2 ch, 100 kbps, English
Субтитры: English
Qo'shimcha ma'lumot: Film Cinerama.Pro sayti orqali BluRay sifatga o'zgartirildi.

MediaInfo

General
Unique ID : 279864505268249450414775225586115678539 (0xD28BF16F71389F0653BF9616F330114B)
Complete name : C:\Users\User\Downloads\Video\Tayyor\Sehrli.tosh.2002.1080p.BluRay.x265.AAC\Dinotopiya.2002.1080p BluRay x265.S00.E01.mkv
Format : Matroska
Format version : Version 4
File size : 2.77 GiB
Duration : 1 h 28 min
Overall bit rate : 4 505 kb/s
Encoded date : UTC 2021-01-29 16:48:23
Writing application : mkvmerge v51.0.0 ('I Wish') 64-bit
Writing library : libebml v1.4.0 + libmatroska v1.6.2
Writing frontend : StaxRip v1.7.0.6
Video
ID : 1
Format : HEVC
Format/Info : High Efficiency Video Coding
Format profile : Main 10@L4@Main
Codec ID : V_MPEGH/ISO/HEVC
Duration : 1 h 28 min
Bit rate : 4 201 kb/s
Width : 1 920 pixels
Height : 1 080 pixels
Display aspect ratio : 16:9
Frame rate mode : Constant
Frame rate : 23.976 (24000/1001) FPS
Color space : YUV
Chroma subsampling : 4:2:0
Bit depth : 10 bits
Bits/(Pixel*Frame) : 0.084
Stream size : 2.59 GiB (93%)
Writing library : x265 2.6+31-3712d13c09bf:[Windows][GCC 7.2.0][64 bit] 10bit
Encoding settings : cpuid=1173503 / frame-threads=2 / numa-pools=4 / wpp / no-pmode / no-pme / no-psnr / no-ssim / log-level=2 / input-csp=1 / input-res=1920x1080 / interlace=0 / total-frames=126770 / level-idc=0 / high-tier=1 / uhd-bd=0 / ref=4 / no-allow-non-conformance / no-repeat-headers / annexb / no-aud / no-hrd / info / hash=0 / no-temporal-layers / open-gop / min-keyint=23 / keyint=250 / gop-lookahead=0 / bframes=8 / b-adapt=2 / b-pyramid / bframe-bias=0 / rc-lookahead=80 / lookahead-slices=0 / scenecut=40 / radl=0 / no-intra-refresh / ctu=64 / min-cu-size=8 / no-rect / no-amp / max-tu-size=32 / tu-inter-depth=1 / tu-intra-depth=1 / limit-tu=0 / rdoq-level=2 / dynamic-rd=0.00 / no-ssim-rd / signhide / no-tskip / nr-intra=0 / nr-inter=0 / no-constrained-intra / no-strong-intra-smoothing / max-merge=3 / limit-refs=3 / limit-modes / me=3 / subme=5 / merange=57 / temporal-mvp / weightp / no-weightb / no-analyze-src-pics / deblock=-3:-3 / no-sao / no-sao-non-deblock / rd=4 / no-early-skip / rskip / no-fast-intra / no-tskip-fast / no-cu-lossless / no-b-intra / no-splitrd-skip / rdpenalty=0 / psy-rd=2.00 / psy-rdoq=1.70 / no-rd-refine / no-lossless / cbqpoffs=0 / crqpoffs=0 / rc=abr / bitrate=4200 / qcomp=0.60 / qpstep=4 / stats-write=0 / stats-read=2 / cplxblur=20.0 / qblur=0.5 / ipratio=1.40 / pbratio=1.30 / aq-mode=3 / aq-strength=1.00 / cutree / zone-count=0 / no-strict-cbr / qg-size=32 / no-rc-grain / qpmax=69 / qpmin=0 / no-const-vbv / sar=0 / overscan=0 / videoformat=5 / range=0 / colorprim=2 / transfer=2 / colormatrix=2 / chromaloc=0 / display-window=0 / max-cll=0,0 / min-luma=0 / max-luma=1023 / log2-max-poc-lsb=8 / vui-timing-info / vui-hrd-info / slices=1 / no-opt-qp-pps / no-opt-ref-list-length-pps / no-multi-pass-opt-rps / scenecut-bias=0.05 / no-opt-cu-delta-qp / no-aq-motion / no-hdr / no-hdr-opt / no-dhdr10-opt / analysis-reuse-level=5 / scale-factor=0 / refine-intra=0 / refine-inter=0 / refine-mv=0 / no-limit-sao / ctu-info=0 / no-lowpass-dct / refine-mv-type=0 / copy-pic=1
Default : Yes
Forced : No
Audio #1
ID : 2
Format : AAC LC
Format/Info : Advanced Audio Codec Low Complexity
Codec ID : A_AAC-2
Duration : 1 h 28 min
Bit rate : 192 kb/s
Channel(s) : 2 channels
Channel layout : L R
Sampling rate : 44.1 kHz
Frame rate : 43.066 FPS (1024 SPF)
Compression mode : Lossy
Stream size : 122 MiB (4%)
Title : Cinerama.Pro
Language : Uzbek
Default : Yes
Forced : Yes
Audio #2
ID : 3
Format : AAC LC
Format/Info : Advanced Audio Codec Low Complexity
Codec ID : A_AAC-2
Duration : 1 h 28 min
Bit rate : 100 kb/s
Channel(s) : 2 channels
Channel layout : L R
Sampling rate : 48.0 kHz
Frame rate : 46.875 FPS (1024 SPF)
Compression mode : Lossy
Delay relative to video : 20 ms
Stream size : 63.3 MiB (2%)
Language : English
Default : No
Forced : No
Text #1
ID : 4
Format : UTF-8
Codec ID : S_TEXT/UTF8
Codec ID/Info : UTF-8 Plain Text
Duration : 20 s 0 ms
Bit rate : 57 b/s
Count of elements : 2
Stream size : 143 Bytes (0%)
Title : Cinerama.Pro
Language : Uzbek
Default : Yes
Forced : Yes
Text #2
ID : 5
Format : PGS
Muxing mode : zlib
Codec ID : S_HDMV/PGS
Codec ID/Info : Picture based subtitle format used on BDs/HD-DVDs
Duration : 1 h 27 min
Bit rate : 29.9 kb/s
Count of elements : 2807
Stream size : 18.6 MiB (1%)
Language : English
Default : No
Forced : No
Menu
00:00:00.000 : en:Chapter 1
00:06:52.913 : en:Chapter 2
00:16:54.013 : en:Chapter 3
00:21:08.768 : en:Chapter 4
00:26:36.095 : en:Chapter 5
00:31:29.888 : en:Chapter 6
00:40:06.905 : en:Chapter 7
00:48:35.413 : en:Chapter 8
00:59:38.575 : en:Chapter 9
01:09:44.681 : en:Chapter 10
01:19:24.760 : en:Chapter 11
01:27:10.225 : en:Chapter 12

Скриншоты

Показать сообщения:    

Текущее время: 07-Мар 06:10

Часовой пояс: UTC - 5



Вы не можете начинать темы
Вы не можете отвечать на сообщения
Вы не можете редактировать свои сообщения
Вы не можете удалять свои сообщения
Вы не можете голосовать в опросах
Вы не можете прикреплять файлы к сообщениям
Вы не можете скачивать файлы