Регистрация ·
Имя: Пароль:  
· Забыли пароль? · Вопросы от гостей
Охотник на монстров
HDRezka Studio
BDRip 720p
Охотник на монстров
HDRezka Studio
BDRip 1080p
Чудо-женщина: 1984
Мосфильм-Мастер
WEB-DL 720p
Чудо-женщина: 1984
Мосфильм-Мастер
WEB-DL 1080p
Чудо-женщина: 1984
Мосфильм-Мастер
WEB-DL 2160p
Kliplar To'plami
O'zbek Tilida
Rizanova
12 Round
O'zbek Tilida
BluRay 1080p
Qo'riqchi ayol
O'zbek Tilida
BluRay 1080p
SHAFT
O'zbek Tilida
BDRip
SHAFT
O'zbek Tilida
WEBRip 1080p
Javohir politsiyachi
O'zbek Tilida
BDRip-AVC
So'nggi Ritsarlar
O'zbek Tilida
BluRay 1080p
Агент Ева
O'zbek Tilida
WEB-Rip
Анна
iTunes
BDRip 1080p
Анна
iTunes
BDRip-AVC
Анна
iTunes
BDRip
Mulan
O'zbek Tilida
WEBRip 1080p HEVC x265
Мулан
IdeaFilm
WEB-DL 720p
Мулан
IdeaFilm
WEB-DL 1080p
Мулан
IdeaFilm
WEB-DL 2160p
Temir Odam Uchligi
O'zbek Tilida
BluRay, 1080p, HEVC, x265, 10bit
Kliplar To'plami
O'zbek Tilida
Rizanova
Singularity
Repack
Mechanics
Tom Raider
Repack
Xatab
Far Cry New Dawn
Repack
Xatab
Far Cry 3
Repack
Xatab
Фитнес
Россия
WEB-DL 720p
Resident Evil
Гексалогия
Repack
Godzilla 2; Mahluqlar Qiroli
O'zbek Tilida
WEBRip HEVC 720p
Olimpning Qulashi
O'zbek Tilida
BDRip
X-Odamlar Qora Qaqnus
O'zbek Tilida
BDRip 1080p
Sevishganlar
O'zbek Tilida
HDRip
Maymunlar Sayyorasi Uchlik
O'zbek Tilida
BDRip
Koko Siri
O'zbek Tilida
BDRip-AVC
Спартак
РенТВ
BDRip 720p
Shelbilar oilasi
O'zbek Tilida
x265 1080p WEBRip 10bit
Однажды на востоке
Лицензия
BDRip 1080p
Yason va Argonaftlar
O'zbek Tilida
DVDRip x264
Shelbilar oilasi
O'zbek Tilida
BluRay 1080p x264
Qotillik Uchun Uch Kun
O'zbek Tilida
BluRay 1080p x264
Ko'd 211
O'zbek + Rus + Ing
BluRay 1080p
Интрижка
iTunes
WEB-DLRip
WarFace
Лицензия
Русский
Уважаемые гости сайта! Добро Пожаловать на наш торрент трекер,где Вы можете бесплатно скачать любой Софт,Фильмы,Музыку и многое другое! А так же постоянно ведется набор модераторов и релизеров. Зарегистрируйтесь сейчас, чтобы получить доступ ко всем функциям. После регистрации или входа на сайт вы сможете создавать темы, отвечать на сообщения и скачивать файлы.

Yengilmas (22 o'q) / 22 пули: Бессмертный / 22 Bullets / L'immortel (2010) BDRip-HEVC 1080p 10bit

Статистика раздачи
Скачал: [ 9 ]
 
     
 
 
Автор Сообщение

Ahmadullo2019 ®

Не в сети

5505

Пол: Мужской

Стаж: 1 год 4 месяца

Сообщений: 17

Карма: 10

[+]

Провайдер: UzOnline UzOnline

Наличие запрета:



Награды: Нет

[Профиль] ЛС

Создавать темы 08-Фев-2021 00:40

Цитировать

Yengilmas (22 o'q) / 22 пули: Бессмертный / 22 Bullets / L'immortel Chiqqan yili: 2010
Davlat: Fransiya
Janr: Jangari,drama,kriminal
Davomiyligi: 01:57:00
Tarjima: Ko'p ovozli (kadr ortidan) Milliy TV
Rejissyor: Rishar Berri
Rollarda: Jan Renaud, kad Merad, Jan-Pier Darrussen, Marina fois, Joey Starr, Rishar Berri, Venantino Venantini, Klody Jansak, Jozefin Berri, Maks Beset De Mulgleyv
Tavsif: Charlz Matei Marselning xudojo'ylaridan biri. U nafaqaga chiqishga va yolg'iz yashashga qaror qiladi, chunki u ko'p yillar davomida va orqasida juda ayanchli hayot. Biroq, bunday voqealar aylanishiga do'stlar doim qarshi bo'lgan. Unga hech qanday imkoniyat qoldirmasdan qattiq urinish qilingan. Charlz kasalxonaga tushgandan so'ng, uning tanasidan 22 o'qlarini olib tashlandi ... lekin mo " jizaviy tarzda u tirik qoladi. Endi u bir marta do'stlaridan qasos olishni istaydi. Va uning qasosi kamida qon va shafqatsiz bo'ladi.
Sifati: Blu-Ray 10bit
Format: MKV
Video Kodek: x265
Audio kodek: AAC
Video: BluRay x265 HEVC 10bit, 1920x1080 (16:9), 23.976 fps, 7815 kb/s
Audio: AAC, 44.1 kHz, 2 ch, 192 kbps, Uzbek
Audio 2: AAC, 48.0 kHz, 2 ch, 100 kbps, Rus
Subtitrlar: Russian
Qo'shimcha ma'lumot: Film Cinerama.Pro sayti orqali BluRay sifatga o'zgartirildi.

MediaInfo

General
Unique ID : 193407456833216702050140338169949028449 (0x9180EBD79547731E9A8168685C858061)
Complete name : J:\MEDIA\Yengilmas.(22.o'q).2010.BDRip.1080p.HEVC.10bit.mkv
Format : Matroska
Format version : Version 4
File size : 7.10 GiB
Duration : 1 h 57 min
Overall bit rate : 8 652 kb/s
Movie name : by Spartanec
Encoded date : UTC 2021-02-08 05:45:39
Writing application : mkvmerge v21.0.0 ('Tardigrades Will Inherit The Earth') 64-bit
Writing library : libebml v1.3.5 + libmatroska v1.4.8
Cover : Yes
Attachments : cover.jpg
Video
ID : 1
Format : HEVC
Format/Info : High Efficiency Video Coding
Format profile : Main 10@L4.1@High
Codec ID : V_MPEGH/ISO/HEVC
Duration : 1 h 57 min
Bit rate : 7 815 kb/s
Width : 1 920 pixels
Height : 816 pixels
Display aspect ratio : 2.35:1
Frame rate mode : Constant
Frame rate : 24.000 FPS
Color space : YUV
Chroma subsampling : 4:2:0
Bit depth : 10 bits
Bits/(Pixel*Frame) : 0.208
Stream size : 6.42 GiB (90%)
Writing library : x265 3.2.1+1-b5c86a64bbbe:[Windows][GCC 9.2.0][64 bit] 10bit
Encoding settings : cpuid=1111039 / frame-threads=4 / numa-pools=16 / wpp / no-pmode / no-pme / no-psnr / no-ssim / log-level=2 / input-csp=1 / input-res=1920x816 / interlace=0 / total-frames=169282 / level-idc=41 / high-tier=1 / uhd-bd=0 / ref=5 / no-allow-non-conformance / no-repeat-headers / annexb / no-aud / no-hrd / info / hash=0 / no-temporal-layers / open-gop / min-keyint=23 / keyint=240 / gop-lookahead=0 / bframes=12 / b-adapt=2 / b-pyramid / bframe-bias=0 / rc-lookahead=60 / lookahead-slices=1 / scenecut=40 / radl=0 / no-splice / no-intra-refresh / ctu=32 / min-cu-size=8 / rect / amp / max-tu-size=32 / tu-inter-depth=4 / tu-intra-depth=4 / limit-tu=1 / rdoq-level=1 / dynamic-rd=0.00 / no-ssim-rd / signhide / no-tskip / nr-intra=0 / nr-inter=0 / no-constrained-intra / no-strong-intra-smoothing / max-merge=5 / limit-refs=0 / no-limit-modes / me=3 / subme=7 / merange=57 / temporal-mvp / no-hme / weightp / weightb / no-analyze-src-pics / deblock=-2:-2 / no-sao / no-sao-non-deblock / rd=6 / selective-sao=0 / no-early-skip / no-rskip / no-fast-intra / no-tskip-fast / no-cu-lossless / b-intra / no-splitrd-skip / rdpenalty=0 / psy-rd=2.00 / psy-rdoq=1.00 / no-rd-refine / no-lossless / cbqpoffs=0 / crqpoffs=0 / rc=crf / crf=20.6 / qcomp=0.70 / qpstep=4 / stats-write=0 / stats-read=0 / vbv-maxrate=50000 / vbv-bufsize=50000 / vbv-init=0.9 / crf-max=0.0 / crf-min=0.0 / ipratio=1.40 / pbratio=1.30 / aq-mode=2 / aq-strength=1.00 / no-cutree / zone-count=0 / no-strict-cbr / qg-size=32 / no-rc-grain / qpmax=69 / qpmin=0 / no-const-vbv / sar=1 / overscan=0 / videoformat=5 / range=0 / colorprim=1 / transfer=1 / colormatrix=1 / chromaloc=0 / display-window=0 / cll=0,0 / min-luma=0 / max-luma=1023 / log2-max-poc-lsb=8 / vui-timing-info / vui-hrd-info / slices=1 / no-opt-qp-pps / no-opt-ref-list-length-pps / no-multi-pass-opt-rps / scenecut-bias=0.05 / no-opt-cu-delta-qp / no-aq-motion / no-hdr / no-hdr-opt / no-dhdr10-opt / no-idr-recovery-sei / analysis-reuse-level=5 / scale-factor=0 / refine-intra=0 / refine-inter=0 / refine-mv=0 / refine-ctu-distortion=0 / no-limit-sao / ctu-info=0 / no-lowpass-dct / refine-analysis-type=0 / copy-pic=1 / max-ausize-factor=1.0 / no-dynamic-refine / no-single-sei / no-hevc-aq / no-svt / no-field / qp-adaptation-range=1.00
Language : English
Default : Yes
Forced : No
Color range : Limited
Color primaries : BT.709
Transfer characteristics : BT.709
Matrix coefficients : BT.709
Audio #1
ID : 2
Format : AAC LC
Format/Info : Advanced Audio Codec Low Complexity
Codec ID : A_AAC-2
Duration : 1 h 57 min
Bit rate : 192 kb/s
Channel(s) : 2 channels
Channel layout : L R
Sampling rate : 44.1 kHz
Frame rate : 43.066 FPS (1024 SPF)
Compression mode : Lossy
Stream size : 164 MiB (2%)
Title : uzb cinerama.pro(MilliyTV)
Language : Uzbek
Default : Yes
Forced : Yes
Audio #2
ID : 3
Format : AC-3
Format/Info : Audio Coding 3
Commercial name : Dolby Digital
Codec ID : A_AC3
Duration : 1 h 57 min
Bit rate mode : Constant
Bit rate : 640 kb/s
Channel(s) : 6 channels
Channel layout : L R C LFE Ls Rs
Sampling rate : 48.0 kHz
Frame rate : 31.250 FPS (1536 SPF)
Bit depth : 16 bits
Compression mode : Lossy
Stream size : 538 MiB (7%)
Title : Дублированный (Лицензия)
Service kind : Complete Main
Default : No
Forced : No
Text #1
ID : 4
Format : UTF-8
Codec ID : S_TEXT/UTF8
Codec ID/Info : UTF-8 Plain Text
Duration : 1 h 15 min
Bit rate : 0 b/s
Count of elements : 7
Stream size : 504 Bytes (0%)
Title : uzb cinerama.pro(MilliyTV)
Language : Uzbek
Default : Yes
Forced : Yes
Text #2
ID : 5
Format : UTF-8
Codec ID : S_TEXT/UTF8
Codec ID/Info : UTF-8 Plain Text
Duration : 1 h 51 min
Bit rate : 83 b/s
Count of elements : 1287
Stream size : 68.0 KiB (0%)
Title : Full rus
Default : No
Forced : No

Lavhalar

Показать сообщения:    

Текущее время: 07-Мар 13:16

Часовой пояс: UTC - 5



Вы не можете начинать темы
Вы не можете отвечать на сообщения
Вы не можете редактировать свои сообщения
Вы не можете удалять свои сообщения
Вы не можете голосовать в опросах
Вы не можете прикреплять файлы к сообщениям
Вы не можете скачивать файлы