Регистрация ·
Имя: Пароль:  
· Забыли пароль? · Вопросы от гостей
Охотник на монстров
HDRezka Studio
BDRip 720p
Охотник на монстров
HDRezka Studio
BDRip 1080p
Чудо-женщина: 1984
Мосфильм-Мастер
WEB-DL 720p
Чудо-женщина: 1984
Мосфильм-Мастер
WEB-DL 1080p
Чудо-женщина: 1984
Мосфильм-Мастер
WEB-DL 2160p
Kliplar To'plami
O'zbek Tilida
Rizanova
12 Round
O'zbek Tilida
BluRay 1080p
Qo'riqchi ayol
O'zbek Tilida
BluRay 1080p
SHAFT
O'zbek Tilida
BDRip
SHAFT
O'zbek Tilida
WEBRip 1080p
Javohir politsiyachi
O'zbek Tilida
BDRip-AVC
So'nggi Ritsarlar
O'zbek Tilida
BluRay 1080p
Агент Ева
O'zbek Tilida
WEB-Rip
Анна
iTunes
BDRip 1080p
Анна
iTunes
BDRip-AVC
Анна
iTunes
BDRip
Mulan
O'zbek Tilida
WEBRip 1080p HEVC x265
Мулан
IdeaFilm
WEB-DL 720p
Мулан
IdeaFilm
WEB-DL 1080p
Мулан
IdeaFilm
WEB-DL 2160p
Temir Odam Uchligi
O'zbek Tilida
BluRay, 1080p, HEVC, x265, 10bit
Kliplar To'plami
O'zbek Tilida
Rizanova
Singularity
Repack
Mechanics
Tom Raider
Repack
Xatab
Far Cry New Dawn
Repack
Xatab
Far Cry 3
Repack
Xatab
Фитнес
Россия
WEB-DL 720p
Resident Evil
Гексалогия
Repack
Godzilla 2; Mahluqlar Qiroli
O'zbek Tilida
WEBRip HEVC 720p
Olimpning Qulashi
O'zbek Tilida
BDRip
X-Odamlar Qora Qaqnus
O'zbek Tilida
BDRip 1080p
Sevishganlar
O'zbek Tilida
HDRip
Maymunlar Sayyorasi Uchlik
O'zbek Tilida
BDRip
Koko Siri
O'zbek Tilida
BDRip-AVC
Спартак
РенТВ
BDRip 720p
Shelbilar oilasi
O'zbek Tilida
x265 1080p WEBRip 10bit
Однажды на востоке
Лицензия
BDRip 1080p
Yason va Argonaftlar
O'zbek Tilida
DVDRip x264
Shelbilar oilasi
O'zbek Tilida
BluRay 1080p x264
Qotillik Uchun Uch Kun
O'zbek Tilida
BluRay 1080p x264
Ko'd 211
O'zbek + Rus + Ing
BluRay 1080p
Интрижка
iTunes
WEB-DLRip
WarFace
Лицензия
Русский
Уважаемые гости сайта! Добро Пожаловать на наш торрент трекер,где Вы можете бесплатно скачать любой Софт,Фильмы,Музыку и многое другое! А так же постоянно ведется набор модераторов и релизеров. Зарегистрируйтесь сейчас, чтобы получить доступ ко всем функциям. После регистрации или входа на сайт вы сможете создавать темы, отвечать на сообщения и скачивать файлы.

Форсаж: Антология / The Fast and the Furious: Anthology (2001-2019) BDRip-HEVC 1080p | D, P

Статистика раздачи
Качаю: [ 3 ]
Скачал: [ 3 ]
 
     
 
 
Автор Сообщение

Admin ®

Не в сети

2

VIP пользователь

Пол: Мужской

Стаж: 4 года 9 месяцев

Сообщений: 168

Карма: 787

[+]

Провайдер: UzOnline UzOnline

Тарифный план: UNLIME 20 Mbit/sekund

Наличие запрета:



Награды: Нет

[Профиль] ЛС

Создавать темы 08-Фев-2021 02:32

Цитировать

Форсаж: Антология / The Fast and the Furious: Anthology (2001-2019)
Название: Форсаж: Антология
Оригинальное название: The Fast and the Furious: Anthology
Год выхода: 2001, 2003, 2006, 2009, 2011, 2013, 2015, 2017, 2019
Жанр: боевик, триллер, драма, криминал

Форсаж / The Fast and the Furious (2001) | D, P

Название: Форсаж
Оригинальное название: The Fast and the Furious
Год выхода: 2001
Жанр: боевик, криминал, триллер
Режиссер: Роб Коэн
В ролях: Пол Уокер, Вин Дизель, Мишель Родригес, Джордана Брюстер, Мэтт Шульце, Рик Юн, Чэд Линдберг, Джонни Стронг, Тед Левайн, Том Бэрри
О фильме: Его зовут Брайан, и он — фанатик турбин и нитроускорителей. Его цель — быть принятым в автобанду легендарного Доминика Торетто, чемпиона опасных и незаконных уличных гонок. Но это лишь часть правды… Брайан также полицейский, имеющий задание войти в доверие к Торетто, подозреваемому в причастности к дерзким грабежам трейлеров, совершенным прямо «с колес». Но чем больше доверяет нахальному новичку харизматичный Доминик, тем больше проникается герой идеалами «ангелов дорог». И тем меньше ему хочется выполнять свою миссию. И вот, наступает момент, когда Брайану придется выбирать между дружбой и долгом. И выбирать на скорости в 200 километров в час…

Страна: США, Германия
Студия: Universal Studios
Продолжительность: 01:46:51
Перевод: дублированный, многоголосый закадровый
Качество: BDRip-HEVC 1080p
Кодек: HEVC (x265)
Видео: 1920x816 (2,35:1), 10,2 мбит/сек, 0.271 бит/(Пиксели*Кадры), 23.976 (24000/1001) кадр/сек, HEVC (Main10@L.4.1@High) 10 бит
Звук:
Аудио1: AC3, 6 ch, 448 Kbps - русский Дублированный
Аудио2: AC3, 6 ch, 640 Kbps - Русский,Многоголосый (Blu-Ray CEE)
Аудио3: AC3, 6 ch, 384 Kbps - Русский,Многоголосый
Аудио4: AC3, 6 ch, 640 Kbps - english Original
Субтитры: Русские форсированные и полные (SRT), English full (SDH)
Навигация по главам: Есть

Информация по видеофайлу

x265 info: frame I: 647, Avg QP:18.05 kb/s: 18571.38
x265 info: frame P: 28037, Avg QP:18.98 kb/s: 14615.19
x265 info: frame B: 125009, Avg QP:21.42 kb/s: 9155.82
x265 info: Weighted P-Frames: Y:7.0% UV:5.9%
x265 info: Weighted B-Frames: Y:9.6% UV:6.7%
x265 info: consecutive B-frames: 8.1% 6.2% 6.7% 23.7% 9.0% 20.5% 6.5% 9.8% 2.8% 2.2% 1.0% 1.1% 0.5% 0.5% 0.4% 0.8% 0.4%
x265 info: encoded 153693 frames in 253108.76s (0.61 fps), 10191.37 kb/s, Avg QP:20.96
Формат : Matroska
Версия формата : Version 4
Размер файла : 9,18 Гбайт
Продолжительность : 1 ч. 46 м.
Общий поток : 12,3 Мбит/сек
Название фильма : Форсаж.The.Fast.And.The.Furious.2001.BDRip-HEVC.1080p
Дата кодирования : UTC 2020-04-01 06:28:19
Программа кодирования : mkvmerge v43.0.0 ('The Quartermaster') 64-bit
Библиотека кодирования : libebml v1.3.10 + libmatroska v1.5.2
Видео
Идентификатор : 1
Формат : HEVC
Формат/Информация : High Efficiency Video Coding
Профиль формата : Main 10@L4.1@High
Идентификатор кодека : V_MPEGH/ISO/HEVC
Продолжительность : 1 ч. 46 м.
Битрейт : 10,2 Мбит/сек
Ширина : 1920 пикселей
Высота : 816 пикселей
Соотношение сторон : 2,35:1
Режим частоты кадров : Постоянный
Частота кадров : 23,976 (24000/1001) кадра/сек
Цветовое пространство : YUV
Субдискретизация насыщенности : 4:2:0
Битовая глубина : 10 бит
Бит/(Пиксели*Кадры) : 0.271
Размер потока : 7,61 Гбайт (83%)
Заголовок : The Fast and the Furious / Rip by OldGamer
Библиотека кодирования : x265 3.3+2-gd9a7411cc:[Windows][MSVC 1925][64 bit] 10bit
Настройки программы : cpuid=1111039 / frame-threads=3 / numa-pools=12 / wpp / no-pmode / no-pme / no-psnr / no-ssim / log-level=2 / input-csp=1 / input-res=1920x816 / interlace=0 / total-frames=153693 / level-idc=41 / high-tier=1 / uhd-bd=0 / ref=5 / no-allow-non-conformance / no-repeat-headers / annexb / no-aud / no-hrd / info / hash=0 / no-temporal-layers / open-gop / min-keyint=23 / keyint=240 / gop-lookahead=0 / bframes=16 / b-adapt=2 / b-pyramid / bframe-bias=0 / rc-lookahead=40 / lookahead-slices=0 / scenecut=40 / hist-scenecut=0 / radl=0 / no-splice / no-intra-refresh / ctu=64 / min-cu-size=8 / rect / amp / max-tu-size=32 / tu-inter-depth=4 / tu-intra-depth=4 / limit-tu=1 / rdoq-level=2 / dynamic-rd=0.00 / no-ssim-rd / signhide / no-tskip / nr-intra=0 / nr-inter=0 / no-constrained-intra / no-strong-intra-smoothing / max-merge=5 / limit-refs=3 / no-limit-modes / me=3 / subme=7 / merange=57 / temporal-mvp / no-frame-dup / hme / Level / merange / L0,L1,L2=16,32,57 / weightp / weightb / no-analyze-src-pics / deblock=-3:-3 / no-sao / no-sao-non-deblock / rd=6 / selective-sao=0 / no-early-skip / rskip / no-fast-intra / no-tskip-fast / no-cu-lossless / b-intra / no-splitrd-skip / rdpenalty=0 / psy-rd=2.00 / psy-rdoq=1.00 / no-rd-refine / no-lossless / cbqpoffs=0 / crqpoffs=0 / rc=crf / crf=19.0 / qcomp=0.75 / qpstep=4 / stats-write=0 / stats-read=0 / vbv-maxrate=50000 / vbv-bufsize=50000 / vbv-init=0.9 / crf-max=0.0 / crf-min=0.0 / ipratio=1.40 / pbratio=1.30 / aq-mode=4 / aq-strength=0.70 / no-cutree / zone-count=1 / zones: / start-frame=145655 / end-frame=152548 / qp=36 / no-strict-cbr / qg-size=32 / no-rc-grain / qpmax=69 / qpmin=0 / no-const-vbv / sar=1 / overscan=0 / videoformat=5 / range=0 / colorprim=2 / transfer=2 / colormatrix=2 / chromaloc=0 / display-window=0 / cll=0,0 / min-luma=0 / max-luma=1023 / log2-max-poc-lsb=8 / vui-timing-info / vui-hrd-info / slices=1 / no-opt-qp-pps / no-opt-ref-list-length-pps / no-multi-pass-opt-rps / scenecut-bias=0.00 / hist-threshold=0.01 / no-opt-cu-delta-qp / no-aq-motion / no-hdr10 / no-hdr10-opt / no-dhdr10-opt / no-idr-recovery-sei / analysis-reuse-level=0 / analysis-save-reuse-level=0 / analysis-load-reuse-level=0 / scale-factor=0 / refine-intra=0 / refine-inter=0 / refine-mv=1 / refine-ctu-distortion=0 / no-limit-sao / ctu-info=0 / no-lowpass-dct / refine-analysis-type=0 / copy-pic=1 / max-ausize-factor=1.0 / no-dynamic-refine / no-single-sei / no-hevc-aq / no-svt / no-field / qp-adaptation-range=1.00 / no-scenecut-aware-qpconformance-window-offsets / right=0 / bottom=0
Язык : English
Default : Да
Forced : Нет
Аудио #1
Идентификатор : 2
Формат : AC-3
Формат/Информация : Audio Coding 3
Коммерческое название : Dolby Digital
Идентификатор кодека : A_AC3
Продолжительность : 1 ч. 46 м.
Вид битрейта : Постоянный
Битрейт : 448 Кбит/сек
Каналы : 6 каналов
Channel layout : L R C LFE Ls Rs
Частота : 48,0 КГц
Частота кадров : 31,250 кадров/сек (1536 SPF)
Битовая глубина : 16 бит
Метод сжатия : С потерями
Задержка видео : 120 мс.
Размер потока : 342 Мбайт (4%)
Заголовок : Dub
Язык : Russian
ServiceKind/ : Complete Main
Default : Да
Forced : Нет
Аудио #2
Идентификатор : 3
Формат : AC-3
Формат/Информация : Audio Coding 3
Коммерческое название : Dolby Digital
Идентификатор кодека : A_AC3
Продолжительность : 1 ч. 46 м.
Вид битрейта : Постоянный
Битрейт : 640 Кбит/сек
Каналы : 6 каналов
Channel layout : L R C LFE Ls Rs
Частота : 48,0 КГц
Частота кадров : 31,250 кадров/сек (1536 SPF)
Битовая глубина : 16 бит
Метод сжатия : С потерями
Задержка видео : 70 мс.
Размер потока : 489 Мбайт (5%)
Заголовок : MVO (Blu-Ray CEE)
Язык : Russian
ServiceKind/ : Complete Main
Default : Нет
Forced : Нет
Аудио #3
Идентификатор : 4
Формат : AC-3
Формат/Информация : Audio Coding 3
Коммерческое название : Dolby Digital
Идентификатор кодека : A_AC3
Продолжительность : 1 ч. 46 м.
Вид битрейта : Постоянный
Битрейт : 384 Кбит/сек
Каналы : 6 каналов
Channel layout : L R C LFE Ls Rs
Частота : 48,0 КГц
Частота кадров : 31,250 кадров/сек (1536 SPF)
Битовая глубина : 16 бит
Метод сжатия : С потерями
Размер потока : 293 Мбайт (3%)
Заголовок : MVO
Язык : Russian
ServiceKind/ : Complete Main
Default : Нет
Forced : Нет
Аудио #4
Идентификатор : 5
Формат : AC-3
Формат/Информация : Audio Coding 3
Коммерческое название : Dolby Digital
Идентификатор кодека : A_AC3
Продолжительность : 1 ч. 46 м.
Вид битрейта : Постоянный
Битрейт : 640 Кбит/сек
Каналы : 6 каналов
Channel layout : L R C LFE Ls Rs
Частота : 48,0 КГц
Частота кадров : 31,250 кадров/сек (1536 SPF)
Битовая глубина : 16 бит
Метод сжатия : С потерями
Размер потока : 489 Мбайт (5%)
Язык : English
ServiceKind/ : Complete Main
Default : Нет
Forced : Нет
Текст #1
Идентификатор : 6
Формат : UTF-8
Идентификатор кодека : S_TEXT/UTF8
Идентификатор кодека/Информация : UTF-8 Plain Text
Продолжительность : 1 ч. 14 м.
Битрейт : 0 бит/сек
ElementCount : 16
Размер потока : 511 байт (0%)
Заголовок : Forced
Язык : Russian
Default : Нет
Forced : Нет
Текст #2
Идентификатор : 7
Формат : UTF-8
Идентификатор кодека : S_TEXT/UTF8
Идентификатор кодека/Информация : UTF-8 Plain Text
Продолжительность : 1 ч. 45 м.
Битрейт : 59 бит/сек
ElementCount : 831
Размер потока : 46,5 Кбайт (0%)
Заголовок : Full
Язык : Russian
Default : Нет
Forced : Нет
Текст #3
Идентификатор : 8
Формат : UTF-8
Идентификатор кодека : S_TEXT/UTF8
Идентификатор кодека/Информация : UTF-8 Plain Text
Продолжительность : 1 ч. 45 м.
Битрейт : 42 бит/сек
ElementCount : 885
Размер потока : 32,7 Кбайт (0%)
Заголовок : SDH
Язык : English
Default : Нет
Forced : Нет
Меню
00:00:00.000 : en:(01)00:00:00:000
00:02:56.885 : en:(02)00:02:56:885
00:10:20.244 : en:(03)00:10:20:244
00:15:07.531 : en:(04)00:15:07:531
00:26:40.473 : en:(05)00:26:40:473
00:29:59.214 : en:(06)00:29:59:214
00:34:42.872 : en:(07)00:34:42:872
00:38:08.494 : en:(08)00:38:08:494
00:44:56.402 : en:(09)00:44:56:402
00:55:26.489 : en:(10)00:55:26:489
00:58:40.433 : en:(11)00:58:40:433
01:01:45.743 : en:(12)01:01:45:743
01:09:25.119 : en:(13)01:09:25:119
01:12:02.026 : en:(14)01:12:02:026
01:15:23.685 : en:(15)01:15:23:685
01:20:44.172 : en:(16)01:20:44:172
01:29:59.811 : en:(17)01:29:59:811
01:34:58.317 : en:(18)01:34:58:317
01:38:05.462 : en:(19)01:38:05:462
01:39:57.992 : en:(20)01:39:57:992
01:46:50.737 : en:(21)01:46:50:737
Скриншоты

Двойной форсаж / 2 Fast 2 Furious (2003) | D, P

Название: Двойной форсаж
Оригинальное название: 2 Fast 2 Furious
Год выхода: 2003
Жанр: боевик, криминал, триллер
Режиссер: Джон Синглтон
В ролях: Пол Уокер, Тайриз Гибсон, Ева Мендес, Коул Хаузер, Лудакрис, Том Бэрри, Джеймс Римар, Девон Аоки, Мэтт Галлини, Роберто «Санс» Санчес
О фильме: Бывший полицейский Брайан О`Коннер вместе с напарником Романом Пирсом собираются перевезти крупную сумму «грязных» денег известного мафиози Картера Верона в качестве его подручных. Но на самом деле эта работа является только прикрытием для Брайана, который вместе с тайным агентом Моникой Фуэнтес должны уличить изворотливого преступника…

Страна: США, Германия
Студия: Universal Studios
Продолжительность: 01:47:35
Перевод: дублированный, многоголосый закадровый
Качество: BDRip-HEVC 1080p
Кодек: HEVC (x265)
Видео: 1920x816 (2,35:1), 8090 кбит/сек, 0.215 бит/(Пиксели*Кадры), 23.976 (24000/1001) кадр/сек, HEVC (Main10@L.4.1@High) 10 бит
Звук:
Аудио1: AC3, 6 ch, 640 Kbps - русский Дублированный
Аудио2: AC3, 6 ch, 448 Kbps - Русский,Многоголосый #1
Аудио3: AC3, 6 ch, 384 Kbps - Русский,Многоголосый #2
Аудио4: AC3, 6 ch, 640 Kbps - english Original
Субтитры: Русские форсированные и полные (SRT), English full (SRT)
Навигация по главам: Есть

Информация по видеофайлу

x265 info: frame I: 649, Avg QP:18.09 kb/s: 20150.82
x265 info: frame P: 36136, Avg QP:19.35 kb/s: 14674.91
x265 info: frame B: 117990, Avg QP:21.41 kb/s: 6005.28
x265 info: Weighted P-Frames: Y:5.8% UV:3.8%
x265 info: Weighted B-Frames: Y:5.7% UV:3.1%
x265 info: consecutive B-frames: 9.4% 8.3% 7.2% 38.6% 7.9% 24.1% 1.9% 2.0% 0.3% 0.2% 0.0% 0.1%
x265 info: encoded 154775 frames in 187202.95s (0.83 fps), 8088.73 kb/s, Avg QP:20.92
Формат : Matroska
Версия формата : Version 4
Размер файла : 7,67 Гбайт
Продолжительность : 1 ч. 47 м.
Общий поток : 10,2 Мбит/сек
Название фильма : 2.Fast.2.Furious.2003.BDRemux.1080p
Дата кодирования : UTC 2020-04-05 05:30:59
Программа кодирования : mkvmerge v45.0.0 ('Heaven in Pennies') 64-bit
Библиотека кодирования : libebml v1.3.10 + libmatroska v1.5.2
Видео
Идентификатор : 1
Формат : HEVC
Формат/Информация : High Efficiency Video Coding
Профиль формата : Main 10@L4.1@High
Идентификатор кодека : V_MPEGH/ISO/HEVC
Продолжительность : 1 ч. 47 м.
Битрейт : 8090 Кбит/сек
Ширина : 1920 пикселей
Высота : 816 пикселей
Соотношение сторон : 2,35:1
Режим частоты кадров : Постоянный
Частота кадров : 23,976 (24000/1001) кадра/сек
Цветовое пространство : YUV
Субдискретизация насыщенности : 4:2:0
Битовая глубина : 10 бит
Бит/(Пиксели*Кадры) : 0.215
Размер потока : 6,08 Гбайт (79%)
Заголовок : 2 Fast 2 Furious / Rip by OldGamer
Библиотека кодирования : x265 3.3+2-gd9a7411cc:[Windows][MSVC 1925][64 bit] 10bit
Настройки программы : cpuid=1111039 / frame-threads=3 / numa-pools=12 / wpp / no-pmode / no-pme / no-psnr / no-ssim / log-level=2 / input-csp=1 / input-res=1920x816 / interlace=0 / total-frames=154775 / level-idc=41 / high-tier=1 / uhd-bd=0 / ref=5 / no-allow-non-conformance / no-repeat-headers / annexb / no-aud / no-hrd / info / hash=0 / no-temporal-layers / open-gop / min-keyint=23 / keyint=240 / gop-lookahead=0 / bframes=11 / b-adapt=2 / b-pyramid / bframe-bias=0 / rc-lookahead=40 / lookahead-slices=0 / scenecut=40 / hist-scenecut=0 / radl=0 / no-splice / no-intra-refresh / ctu=64 / min-cu-size=8 / rect / amp / max-tu-size=32 / tu-inter-depth=4 / tu-intra-depth=4 / limit-tu=1 / rdoq-level=2 / dynamic-rd=0.00 / no-ssim-rd / signhide / no-tskip / nr-intra=0 / nr-inter=0 / no-constrained-intra / no-strong-intra-smoothing / max-merge=5 / limit-refs=3 / no-limit-modes / me=3 / subme=7 / merange=57 / temporal-mvp / no-frame-dup / no-hme / weightp / weightb / no-analyze-src-pics / deblock=-3:-3 / no-sao / no-sao-non-deblock / rd=6 / selective-sao=0 / no-early-skip / rskip / no-fast-intra / no-tskip-fast / no-cu-lossless / b-intra / no-splitrd-skip / rdpenalty=0 / psy-rd=2.00 / psy-rdoq=1.00 / no-rd-refine / no-lossless / cbqpoffs=0 / crqpoffs=0 / rc=crf / crf=18.8 / qcomp=0.78 / qpstep=4 / stats-write=0 / stats-read=0 / vbv-maxrate=50000 / vbv-bufsize=50000 / vbv-init=0.9 / crf-max=0.0 / crf-min=0.0 / ipratio=1.40 / pbratio=1.30 / aq-mode=4 / aq-strength=0.70 / no-cutree / zone-count=1 / zones: / start-frame=147880 / end-frame=154752 / qp=36 / no-strict-cbr / qg-size=32 / no-rc-grain / qpmax=69 / qpmin=0 / no-const-vbv / sar=1 / overscan=0 / videoformat=5 / range=0 / colorprim=2 / transfer=2 / colormatrix=2 / chromaloc=0 / display-window=0 / cll=0,0 / min-luma=0 / max-luma=1023 / log2-max-poc-lsb=8 / vui-timing-info / vui-hrd-info / slices=1 / no-opt-qp-pps / no-opt-ref-list-length-pps / no-multi-pass-opt-rps / scenecut-bias=0.00 / hist-threshold=0.01 / no-opt-cu-delta-qp / no-aq-motion / no-hdr10 / no-hdr10-opt / no-dhdr10-opt / no-idr-recovery-sei / analysis-reuse-level=0 / analysis-save-reuse-level=0 / analysis-load-reuse-level=0 / scale-factor=0 / refine-intra=0 / refine-inter=0 / refine-mv=1 / refine-ctu-distortion=0 / no-limit-sao / ctu-info=0 / no-lowpass-dct / refine-analysis-type=0 / copy-pic=1 / max-ausize-factor=1.0 / no-dynamic-refine / no-single-sei / no-hevc-aq / no-svt / no-field / qp-adaptation-range=1.00 / no-scenecut-aware-qpconformance-window-offsets / right=0 / bottom=0
Язык : English
Default : Да
Forced : Нет
Аудио #1
Идентификатор : 2
Формат : AC-3
Формат/Информация : Audio Coding 3
Коммерческое название : Dolby Digital
Идентификатор кодека : A_AC3
Продолжительность : 1 ч. 47 м.
Вид битрейта : Постоянный
Битрейт : 640 Кбит/сек
Каналы : 6 каналов
Channel layout : L R C LFE Ls Rs
Частота : 48,0 КГц
Частота кадров : 31,250 кадров/сек (1536 SPF)
Битовая глубина : 16 бит
Метод сжатия : С потерями
Размер потока : 493 Мбайт (6%)
Заголовок : Dub
Язык : Russian
ServiceKind/ : Complete Main
Default : Да
Forced : Нет
Аудио #2
Идентификатор : 3
Формат : AC-3
Формат/Информация : Audio Coding 3
Коммерческое название : Dolby Digital
Идентификатор кодека : A_AC3
Продолжительность : 1 ч. 47 м.
Вид битрейта : Постоянный
Битрейт : 448 Кбит/сек
Каналы : 6 каналов
Channel layout : L R C LFE Ls Rs
Частота : 48,0 КГц
Частота кадров : 31,250 кадров/сек (1536 SPF)
Битовая глубина : 16 бит
Метод сжатия : С потерями
Размер потока : 345 Мбайт (4%)
Заголовок : MVO #1
Язык : Russian
ServiceKind/ : Complete Main
Default : Нет
Forced : Нет
Аудио #3
Идентификатор : 4
Формат : AC-3
Формат/Информация : Audio Coding 3
Коммерческое название : Dolby Digital
Идентификатор кодека : A_AC3
Продолжительность : 1 ч. 47 м.
Вид битрейта : Постоянный
Битрейт : 384 Кбит/сек
Каналы : 6 каналов
Channel layout : L R C LFE Ls Rs
Частота : 48,0 КГц
Частота кадров : 31,250 кадров/сек (1536 SPF)
Битовая глубина : 16 бит
Метод сжатия : С потерями
Задержка видео : 1 с. 150 мс.
Размер потока : 295 Мбайт (4%)
Заголовок : MVO #2
Язык : Russian
ServiceKind/ : Complete Main
Default : Нет
Forced : Нет
Аудио #4
Идентификатор : 5
Формат : AC-3
Формат/Информация : Audio Coding 3
Коммерческое название : Dolby Digital
Идентификатор кодека : A_AC3
Продолжительность : 1 ч. 47 м.
Вид битрейта : Постоянный
Битрейт : 640 Кбит/сек
Каналы : 6 каналов
Channel layout : L R C LFE Ls Rs
Частота : 48,0 КГц
Частота кадров : 31,250 кадров/сек (1536 SPF)
Битовая глубина : 16 бит
Метод сжатия : С потерями
Размер потока : 493 Мбайт (6%)
Язык : English
ServiceKind/ : Complete Main
Default : Нет
Forced : Нет
Текст #1
Идентификатор : 6
Формат : UTF-8
Идентификатор кодека : S_TEXT/UTF8
Идентификатор кодека/Информация : UTF-8 Plain Text
Продолжительность : 1 ч. 36 м.
Битрейт : 0 бит/сек
ElementCount : 10
Размер потока : 300 байт (0%)
Заголовок : Forced
Язык : Russian
Default : Нет
Forced : Нет
Текст #2
Идентификатор : 7
Формат : UTF-8
Идентификатор кодека : S_TEXT/UTF8
Идентификатор кодека/Информация : UTF-8 Plain Text
Продолжительность : 1 ч. 46 м.
Битрейт : 71 бит/сек
ElementCount : 1069
Размер потока : 55,9 Кбайт (0%)
Заголовок : Full
Язык : Russian
Default : Нет
Forced : Нет
Текст #3
Идентификатор : 8
Формат : UTF-8
Идентификатор кодека : S_TEXT/UTF8
Идентификатор кодека/Информация : UTF-8 Plain Text
Продолжительность : 1 ч. 39 м.
Битрейт : 53 бит/сек
ElementCount : 1134
Размер потока : 39,0 Кбайт (0%)
Заголовок : Full
Язык : English
Default : Нет
Forced : Нет
Меню
00:00:00.000 : en:(01)00:00:00:000
00:11:29.689 : en:(02)00:11:29:689
00:14:20.818 : en:(03)00:14:20:818
00:16:02.628 : en:(04)00:16:02:628
00:18:57.344 : en:(05)00:18:57:344
00:24:23.545 : en:(06)00:24:23:545
00:28:16.820 : en:(07)00:28:16:820
00:35:14.153 : en:(08)00:35:14:153
00:40:08.322 : en:(09)00:40:08:322
00:46:44.384 : en:(10)00:46:44:384
00:58:55.114 : en:(11)00:58:55:114
01:05:03.190 : en:(12)01:05:03:190
01:10:25.304 : en:(13)01:10:25:304
01:13:38.038 : en:(14)01:13:38:038
01:22:15.639 : en:(15)01:22:15:639
01:29:54.138 : en:(16)01:29:54:138
01:35:17.628 : en:(17)01:35:17:628
01:37:32.972 : en:(18)01:37:32:972
01:40:33.027 : en:(19)01:40:33:027
01:47:35.615 : en:(20)01:47:35:615
Скриншоты

Тройной форсаж: Токийский дрифт / The Fast and the Furious: Tokyo Drift (2006) | D

Название: Тройной форсаж: Токийский дрифт
Оригинальное название: The Fast and the Furious: Tokyo Drift
Год выхода: 2006
Жанр: боевик, криминал, мелодрама, триллер
Режиссер: Джастин Лин
В ролях: Лукас Блэк, Шэд Мосс, Сон Ган, Брайан Ти, Натали Келли, Брайан Гудман, Джейсон Дж. Тобин, Кэйко Китагава, Сонни Тиба, Леонардо Нам
О фильме: Старшеклассник Шон Босуэлл только и делает, что попадает в неприятности. После очередной выходки — импровизированных гонок и аварии — парню уже светит тюрьма, тогда мать решает отправить его к отцу в Японию. В первый же день в японской школе он знакомится с соотечественником, а тот притаскивает нового друга на подпольные соревнования по дрифт-рейсингу. Тут Шону открывается доселе невиданное искусство прохождения поворотов — и он сразу же ввязывается в спор, с позором проиграв который, оказывается должен местному авторитету по имени Хан.

Страна: США, Германия, Япония
Студия: Universal Pictures, Relativity Media, Original Film
Продолжительность: 01:44:14
Перевод: дублированный
Качество: BDRip-HEVC 1080p
Кодек: HEVC (x265)
Видео: 1920x816 (2,35:1), 10,6 мбит/сек, 0.281 бит/(Пиксели*Кадры), 23.976 (24000/1001) кадр/сек, HEVC (Main10@L.4.1@High) 10 бит
Звук:
Аудио1: AC3, 6 ch, 448 Kbps - русский Дублированный
Аудио2: AC3, 6 ch, 640 Kbps - english Original
Субтитры: Русские форсированные и полные (SRT), English forced and full (SRT)
Навигация по главам: Есть

Информация по видеофайлу

x265 info: frame I: 632, Avg QP:18.02 kb/s: 20734.43
x265 info: frame P: 31587, Avg QP:19.65 kb/s: 15413.04
x265 info: frame B: 117710, Avg QP:21.29 kb/s: 9208.16
x265 info: Weighted P-Frames: Y:3.8% UV:3.3%
x265 info: Weighted B-Frames: Y:4.7% UV:3.9%
x265 info: consecutive B-frames: 8.9% 7.4% 13.6% 22.9% 10.6% 23.6% 5.2% 2.5% 1.4% 0.7% 1.0% 1.4% 0.5% 0.2% 0.2%
x265 info: encoded 149929 frames in 125919.17s (1.19 fps), 10563.99 kb/s, Avg QP:20.93
Формат : Matroska
Версия формата : Version 4
Размер файла : 8,48 Гбайт
Продолжительность : 1 ч. 44 м.
Общий поток : 11,7 Мбит/сек
Название фильма : Тройной.форсаж.Токийский.дрифт.The.Fast.And.The.Furious.Tokyo.Drift.2006.BDRip-HEVC.1080p
Дата кодирования : UTC 2020-03-31 19:36:26
Программа кодирования : mkvmerge v43.0.0 ('The Quartermaster') 64-bit
Библиотека кодирования : libebml v1.3.10 + libmatroska v1.5.2
Видео
Идентификатор : 1
Формат : HEVC
Формат/Информация : High Efficiency Video Coding
Профиль формата : Main 10@L4@Main
Идентификатор кодека : V_MPEGH/ISO/HEVC
Продолжительность : 1 ч. 44 м.
Битрейт : 10,6 Мбит/сек
Ширина : 1920 пикселей
Высота : 816 пикселей
Соотношение сторон : 2,35:1
Режим частоты кадров : Постоянный
Частота кадров : 23,976 (24000/1001) кадра/сек
Цветовое пространство : YUV
Субдискретизация насыщенности : 4:2:0
Битовая глубина : 10 бит
Бит/(Пиксели*Кадры) : 0.281
Размер потока : 7,69 Гбайт (91%)
Заголовок : The Fast and the Furious: Tokyo Drift / Rip by OldGamer
Библиотека кодирования : x265 3.3+2-gd9a7411cc:[Windows][MSVC 1925][64 bit] 10bit
Настройки программы : cpuid=1111039 / frame-threads=3 / numa-pools=8 / wpp / no-pmode / no-pme / psnr / ssim / log-level=2 / input-csp=1 / input-res=1920x816 / interlace=0 / total-frames=149929 / level-idc=0 / high-tier=1 / uhd-bd=0 / ref=5 / no-allow-non-conformance / no-repeat-headers / annexb / no-aud / no-hrd / info / hash=0 / no-temporal-layers / open-gop / min-keyint=23 / keyint=240 / gop-lookahead=0 / bframes=14 / b-adapt=2 / b-pyramid / bframe-bias=0 / rc-lookahead=60 / lookahead-slices=0 / scenecut=40 / hist-scenecut=0 / radl=0 / no-splice / no-intra-refresh / ctu=64 / min-cu-size=8 / rect / amp / max-tu-size=32 / tu-inter-depth=4 / tu-intra-depth=4 / limit-tu=1 / rdoq-level=2 / dynamic-rd=0.00 / no-ssim-rd / signhide / no-tskip / nr-intra=0 / nr-inter=0 / no-constrained-intra / no-strong-intra-smoothing / max-merge=5 / limit-refs=3 / no-limit-modes / me=3 / subme=7 / merange=57 / temporal-mvp / no-frame-dup / no-hme / weightp / weightb / no-analyze-src-pics / deblock=-3:-3 / no-sao / no-sao-non-deblock / rd=6 / selective-sao=0 / no-early-skip / rskip / no-fast-intra / no-tskip-fast / no-cu-lossless / b-intra / no-splitrd-skip / rdpenalty=0 / psy-rd=2.00 / psy-rdoq=1.00 / no-rd-refine / no-lossless / cbqpoffs=0 / crqpoffs=0 / rc=crf / crf=18.8 / qcomp=0.78 / qpstep=4 / stats-write=0 / stats-read=0 / ipratio=1.40 / pbratio=1.30 / aq-mode=4 / aq-strength=0.70 / no-cutree / zone-count=1 / zones: / start-frame=140351 / end-frame=149912 / qp=36 / no-strict-cbr / qg-size=32 / no-rc-grain / qpmax=69 / qpmin=0 / no-const-vbv / sar=1 / overscan=0 / videoformat=5 / range=0 / colorprim=2 / transfer=2 / colormatrix=2 / chromaloc=0 / display-window=0 / cll=0,0 / min-luma=0 / max-luma=1023 / log2-max-poc-lsb=8 / vui-timing-info / vui-hrd-info / slices=1 / no-opt-qp-pps / no-opt-ref-list-length-pps / no-multi-pass-opt-rps / scenecut-bias=0.00 / hist-threshold=0.01 / no-opt-cu-delta-qp / no-aq-motion / no-hdr10 / no-hdr10-opt / no-dhdr10-opt / no-idr-recovery-sei / analysis-reuse-level=0 / analysis-save-reuse-level=0 / analysis-load-reuse-level=0 / scale-factor=0 / refine-intra=0 / refine-inter=0 / refine-mv=1 / refine-ctu-distortion=0 / no-limit-sao / ctu-info=0 / no-lowpass-dct / refine-analysis-type=0 / copy-pic=1 / max-ausize-factor=1.0 / no-dynamic-refine / no-single-sei / no-hevc-aq / no-svt / no-field / qp-adaptation-range=1.00 / no-scenecut-aware-qpconformance-window-offsets / right=0 / bottom=0
Язык : English
Default : Да
Forced : Нет
Аудио #1
Идентификатор : 2
Формат : AC-3
Формат/Информация : Audio Coding 3
Коммерческое название : Dolby Digital
Идентификатор кодека : A_AC3
Продолжительность : 1 ч. 44 м.
Вид битрейта : Постоянный
Битрейт : 448 Кбит/сек
Каналы : 6 каналов
Channel layout : L R C LFE Ls Rs
Частота : 48,0 КГц
Частота кадров : 31,250 кадров/сек (1536 SPF)
Битовая глубина : 16 бит
Метод сжатия : С потерями
Размер потока : 334 Мбайт (4%)
Заголовок : Dub
Язык : Russian
ServiceKind/ : Complete Main
Default : Да
Forced : Нет
Аудио #2
Идентификатор : 3
Формат : AC-3
Формат/Информация : Audio Coding 3
Коммерческое название : Dolby Digital
Идентификатор кодека : A_AC3
Продолжительность : 1 ч. 44 м.
Вид битрейта : Постоянный
Битрейт : 640 Кбит/сек
Каналы : 6 каналов
Channel layout : L R C LFE Ls Rs
Частота : 48,0 КГц
Частота кадров : 31,250 кадров/сек (1536 SPF)
Битовая глубина : 16 бит
Метод сжатия : С потерями
Размер потока : 477 Мбайт (5%)
Язык : English
ServiceKind/ : Complete Main
Default : Нет
Forced : Нет
Текст #1
Идентификатор : 4
Формат : UTF-8
Идентификатор кодека : S_TEXT/UTF8
Идентификатор кодека/Информация : UTF-8 Plain Text
Продолжительность : 1 ч. 38 м.
Битрейт : 0 бит/сек
ElementCount : 7
Размер потока : 182 байт (0%)
Заголовок : Forced
Язык : Russian
Default : Нет
Forced : Нет
Текст #2
Идентификатор : 5
Формат : UTF-8
Идентификатор кодека : S_TEXT/UTF8
Идентификатор кодека/Информация : UTF-8 Plain Text
Продолжительность : 1 ч. 34 м.
Битрейт : 50 бит/сек
ElementCount : 730
Размер потока : 34,8 Кбайт (0%)
Заголовок : Full
Язык : Russian
Default : Нет
Forced : Нет
Текст #3
Идентификатор : 6
Формат : UTF-8
Идентификатор кодека : S_TEXT/UTF8
Идентификатор кодека/Информация : UTF-8 Plain Text
Продолжительность : 1 ч. 11 м.
Битрейт : 2 бит/сек
ElementCount : 43
Размер потока : 1,11 Кбайт (0%)
Заголовок : Forced
Язык : English
Default : Нет
Forced : Нет
Текст #4
Идентификатор : 7
Формат : UTF-8
Идентификатор кодека : S_TEXT/UTF8
Идентификатор кодека/Информация : UTF-8 Plain Text
Продолжительность : 1 ч. 42 м.
Битрейт : 32 бит/сек
ElementCount : 928
Размер потока : 24,5 Кбайт (0%)
Заголовок : SDH
Язык : English
Default : Нет
Forced : Нет
Меню
00:00:00.000 : en:(01)00:00:00:000
00:03:04.434 : en:(02)00:03:04:434
00:09:43.499 : en:(03)00:09:43:499
00:12:10.688 : en:(04)00:12:10:688
00:16:15.391 : en:(05)00:16:15:391
00:20:16.840 : en:(06)00:20:16:840
00:26:36.469 : en:(07)00:26:36:469
00:32:56.849 : en:(08)00:32:56:849
00:41:14.305 : en:(09)00:41:14:305
00:46:34.833 : en:(10)00:46:34:833
00:52:55.255 : en:(11)00:52:55:255
00:58:20.121 : en:(12)00:58:20:121
01:01:46.244 : en:(13)01:01:46:244
01:05:50.488 : en:(14)01:05:50:488
01:08:56.090 : en:(15)01:08:56:090
01:16:14.611 : en:(16)01:16:14:611
01:20:31.409 : en:(17)01:20:31:409
01:26:53.249 : en:(18)01:26:53:249
01:34:59.944 : en:(19)01:34:59:944
01:37:33.848 : en:(20)01:37:33:848
01:44:13.872 : en:(21)01:44:13:872
Скриншоты

Форсаж 4 / Fast & Furious (2009) | D

Название: Форсаж 4
Оригинальное название: Fast & Furious
Год выхода: 2009
Жанр: боевик, криминал, драма, триллер
Режиссер: Джастин Лин
В ролях: Вин Дизель, Пол Уокер, Джордана Брюстер, Галь Гадот, Джон Ортис, Лас Алонсо, Мишель Родригес, Джек Конли, Шей Уигэм, Лиза Лапира
О фильме: Когда кривая дорожка заставляет скрывающегося от правосудия Дома Торетто вернуться в Лос-Анджелес, вражда с агентом Брайаном О’Коннером вспыхивает с новой силой. Но у парочки обнаруживается общий противник, и Дому с Брайаном приходится заключить перемирие в надежде одержать над ним победу. Грабя конвои, роя подкопы и пересекая границы, они приходят к идеальной форме отмщения — педали газа, вдавленной до упора.

Страна: США, Япония
Студия: Universal Pictures, Relativity Media, Original Film, One Race Films
Продолжительность: 01:46:52
Перевод: дублированный
Качество: BDRip-HEVC 1080p
Кодек: HEVC (x265)
Видео: 1920x800 (2,40:1), 10,8 мбит/сек, 0.293 бит/(Пиксели*Кадры), 23.976 (24000/1001) кадр/сек, HEVC (Main10@L.4.1@High) 10 бит
Звук:
Аудио1: AC3, 6 ch, 640 Kbps - русский Дублированный
Аудио2: AC3, 6 ch, 640 Kbps - english Original
Субтитры: Русские форсированные и полные (SRT), English full (SDH)
Навигация по главам: Есть

Информация по видеофайлу

x265 info: frame I: 651, Avg QP:17.75 kb/s: 20968.85
x265 info: frame P: 29509, Avg QP:19.13 kb/s: 16406.66
x265 info: frame B: 123562, Avg QP:21.06 kb/s: 9383.82
x265 info: Weighted P-Frames: Y:6.9% UV:5.9%
x265 info: Weighted B-Frames: Y:8.3% UV:6.4%
x265 info: consecutive B-frames: 9.6% 8.9% 9.7% 23.7% 8.9% 15.1% 5.4% 8.4% 2.2% 2.4% 1.1% 1.9% 0.6% 0.7% 0.4% 0.6% 0.3%
x265 info: encoded 153722 frames in 195974.57s (0.78 fps), 10781.01 kb/s, Avg QP:20.67
Формат : Matroska
Версия формата : Version 4
Размер файла : 9,00 Гбайт
Продолжительность : 1 ч. 46 м.
Общий поток : 12,1 Мбит/сек
Название фильма : Форсаж.4.Fast.&.Furious.2009.BDRip-HEVC.1080p
Дата кодирования : UTC 2020-04-07 12:58:02
Программа кодирования : mkvmerge v45.0.0 ('Heaven in Pennies') 64-bit
Библиотека кодирования : libebml v1.3.10 + libmatroska v1.5.2
Видео
Идентификатор : 1
Формат : HEVC
Формат/Информация : High Efficiency Video Coding
Профиль формата : Main 10@L4.1@High
Идентификатор кодека : V_MPEGH/ISO/HEVC
Продолжительность : 1 ч. 46 м.
Битрейт : 10,8 Мбит/сек
Ширина : 1920 пикселей
Высота : 800 пикселей
Соотношение сторон : 2,40:1
Режим частоты кадров : Постоянный
Частота кадров : 23,976 (24000/1001) кадра/сек
Цветовое пространство : YUV
Субдискретизация насыщенности : 4:2:0
Битовая глубина : 10 бит
Бит/(Пиксели*Кадры) : 0.293
Размер потока : 8,05 Гбайт (89%)
Заголовок : Fast & Furious / Rip by OldGamer
Библиотека кодирования : x265 3.3+2-gd9a7411cc:[Windows][MSVC 1925][64 bit] 10bit
Настройки программы : cpuid=1111039 / frame-threads=3 / numa-pools=12 / wpp / no-pmode / no-pme / no-psnr / no-ssim / log-level=2 / input-csp=1 / input-res=1920x800 / interlace=0 / total-frames=153722 / level-idc=41 / high-tier=1 / uhd-bd=0 / ref=5 / no-allow-non-conformance / no-repeat-headers / annexb / no-aud / no-hrd / info / hash=0 / no-temporal-layers / open-gop / min-keyint=23 / keyint=240 / gop-lookahead=0 / bframes=16 / b-adapt=2 / b-pyramid / bframe-bias=0 / rc-lookahead=40 / lookahead-slices=0 / scenecut=40 / hist-scenecut=0 / radl=0 / no-splice / no-intra-refresh / ctu=64 / min-cu-size=8 / rect / amp / max-tu-size=32 / tu-inter-depth=4 / tu-intra-depth=4 / limit-tu=1 / rdoq-level=2 / dynamic-rd=0.00 / no-ssim-rd / signhide / no-tskip / nr-intra=0 / nr-inter=0 / no-constrained-intra / no-strong-intra-smoothing / max-merge=5 / limit-refs=3 / no-limit-modes / me=3 / subme=7 / merange=57 / temporal-mvp / no-frame-dup / no-hme / weightp / weightb / no-analyze-src-pics / deblock=-3:-3 / no-sao / no-sao-non-deblock / rd=6 / selective-sao=0 / no-early-skip / rskip / no-fast-intra / no-tskip-fast / no-cu-lossless / b-intra / no-splitrd-skip / rdpenalty=0 / psy-rd=2.00 / psy-rdoq=1.00 / no-rd-refine / no-lossless / cbqpoffs=0 / crqpoffs=0 / rc=crf / crf=19.0 / qcomp=0.78 / qpstep=4 / stats-write=0 / stats-read=0 / vbv-maxrate=50000 / vbv-bufsize=50000 / vbv-init=0.9 / crf-max=0.0 / crf-min=0.0 / ipratio=1.40 / pbratio=1.30 / aq-mode=4 / aq-strength=0.70 / no-cutree / zone-count=1 / zones: / start-frame=144992 / end-frame=153716 / qp=36 / no-strict-cbr / qg-size=32 / no-rc-grain / qpmax=69 / qpmin=0 / no-const-vbv / sar=1 / overscan=0 / videoformat=5 / range=0 / colorprim=2 / transfer=2 / colormatrix=2 / chromaloc=0 / display-window=0 / cll=0,0 / min-luma=0 / max-luma=1023 / log2-max-poc-lsb=8 / vui-timing-info / vui-hrd-info / slices=1 / no-opt-qp-pps / no-opt-ref-list-length-pps / no-multi-pass-opt-rps / scenecut-bias=0.00 / hist-threshold=0.01 / no-opt-cu-delta-qp / no-aq-motion / no-hdr10 / no-hdr10-opt / no-dhdr10-opt / no-idr-recovery-sei / analysis-reuse-level=0 / analysis-save-reuse-level=0 / analysis-load-reuse-level=0 / scale-factor=0 / refine-intra=0 / refine-inter=0 / refine-mv=1 / refine-ctu-distortion=0 / no-limit-sao / ctu-info=0 / no-lowpass-dct / refine-analysis-type=0 / copy-pic=1 / max-ausize-factor=1.0 / no-dynamic-refine / no-single-sei / no-hevc-aq / no-svt / no-field / qp-adaptation-range=1.00 / no-scenecut-aware-qpconformance-window-offsets / right=0 / bottom=0
Язык : English
Default : Да
Forced : Нет
Аудио #1
Идентификатор : 2
Формат : AC-3
Формат/Информация : Audio Coding 3
Коммерческое название : Dolby Digital
Идентификатор кодека : A_AC3
Продолжительность : 1 ч. 46 м.
Вид битрейта : Постоянный
Битрейт : 640 Кбит/сек
Каналы : 6 каналов
Channel layout : L R C LFE Ls Rs
Частота : 48,0 КГц
Частота кадров : 31,250 кадров/сек (1536 SPF)
Битовая глубина : 16 бит
Метод сжатия : С потерями
Размер потока : 489 Мбайт (5%)
Заголовок : Dub
Язык : Russian
ServiceKind/ : Complete Main
Default : Да
Forced : Нет
Аудио #2
Идентификатор : 3
Формат : AC-3
Формат/Информация : Audio Coding 3
Коммерческое название : Dolby Digital
Идентификатор кодека : A_AC3
Продолжительность : 1 ч. 46 м.
Вид битрейта : Постоянный
Битрейт : 640 Кбит/сек
Каналы : 6 каналов
Channel layout : L R C LFE Ls Rs
Частота : 48,0 КГц
Частота кадров : 31,250 кадров/сек (1536 SPF)
Битовая глубина : 16 бит
Метод сжатия : С потерями
Размер потока : 489 Мбайт (5%)
Язык : English
ServiceKind/ : Complete Main
Default : Нет
Forced : Нет
Текст #1
Идентификатор : 4
Формат : UTF-8
Идентификатор кодека : S_TEXT/UTF8
Идентификатор кодека/Информация : UTF-8 Plain Text
Продолжительность : 1 ч. 29 м.
Битрейт : 1 бит/сек
ElementCount : 17
Размер потока : 1,06 Кбайт (0%)
Заголовок : Forced
Язык : Russian
Default : Нет
Forced : Нет
Текст #2
Идентификатор : 5
Формат : UTF-8
Идентификатор кодека : S_TEXT/UTF8
Идентификатор кодека/Информация : UTF-8 Plain Text
Продолжительность : 1 ч. 37 м.
Битрейт : 53 бит/сек
ElementCount : 827
Размер потока : 38,2 Кбайт (0%)
Заголовок : Full
Язык : Russian
Default : Нет
Forced : Нет
Текст #3
Идентификатор : 6
Формат : UTF-8
Идентификатор кодека : S_TEXT/UTF8
Идентификатор кодека/Информация : UTF-8 Plain Text
Продолжительность : 1 ч. 38 м.
Битрейт : 40 бит/сек
ElementCount : 993
Размер потока : 28,8 Кбайт (0%)
Заголовок : SDH
Язык : English
Default : Нет
Forced : Нет
Меню
00:00:00.000 : en:(01)00:00:00:000
00:07:26.529 : en:(02)00:07:26:529
00:11:46.956 : en:(03)00:11:46:956
00:16:46.755 : en:(04)00:16:46:755
00:24:24.087 : en:(05)00:24:24:087
00:29:05.452 : en:(06)00:29:05:452
00:34:05.293 : en:(07)00:34:05:293
00:37:30.790 : en:(08)00:37:30:790
00:46:07.347 : en:(09)00:46:07:347
00:53:37.380 : en:(10)00:53:37:380
00:58:15.158 : en:(11)00:58:15:158
01:04:49.218 : en:(12)01:04:49:218
01:07:29.879 : en:(13)01:07:29:879
01:12:01.859 : en:(14)01:12:01:859
01:14:46.523 : en:(15)01:14:46:523
01:20:36.164 : en:(16)01:20:36:164
01:25:03.264 : en:(17)01:25:03:264
01:29:09.385 : en:(18)01:29:09:385
01:35:54.999 : en:(19)01:35:54:999
01:39:24.957 : en:(20)01:39:24:957
01:46:52.155 : en:(21)01:46:52:155
Скриншоты

Форсаж 5 / Fast Five (2011) | D

Название: Форсаж 5
Оригинальное название: Fast Five
Год выхода: 2011
Жанр: боевик, приключения, триллер
Режиссер: Джастин Лин
В ролях: Вин Дизель, Пол Уокер, Джордана Брюстер, Дуэйн Джонсон, Тайриз Гибсон, Лудакрис, Мэтт Шульце, Сон Ган, Галь Гадот, Эльза Патаки
О фильме: Бывший полицейский Брайан О`Коннер вместе с бывалым лихачом Домиником Торетто совсем немного увлеклись жизнью вне закона. После того, как Брайан и Миа Торетто освободили Доминика, они не рискуют долго задерживаться на одном месте, так как являются желанной целью порядком недовольных копов.

Страна: США
Студия: Universal Pictures, Original Film, One Race Films
Продолжительность: 02:10:21
Перевод: дублированный
Качество: BDRip-HEVC 1080p
Кодек: HEVC (x265)
Видео: 1920x816 (2,35:1), 11,8 мбит/сек, 0.315 бит/(Пиксели*Кадры), 23.976 (24000/1001) кадр/сек, HEVC (Main10@L.4.1@High) 10 бит
Звук:
Аудио1: AC3, 6 ch, 640 Kbps - русский Дублированный
Аудио2: AC3, 6 ch, 640 Kbps - english Original
Субтитры: Русские форсированные и полные (SRT), English forced and full (SDH)
Навигация по главам: Есть

Информация по видеофайлу

x265 info: frame I: 796, Avg QP:17.96 kb/s: 23283.69
x265 info: frame P: 35455, Avg QP:19.37 kb/s: 17750.47
x265 info: frame B: 151251, Avg QP:21.30 kb/s: 10405.45
x265 info: Weighted P-Frames: Y:5.7% UV:4.7%
x265 info: Weighted B-Frames: Y:6.2% UV:4.7%
x265 info: consecutive B-frames: 6.3% 8.2% 12.1% 19.5% 12.2% 20.0% 6.4% 5.9% 2.2% 2.1% 1.6% 1.4% 0.7% 0.4% 0.3% 0.3% 0.5%
x265 info: encoded 187502 frames in 152328.01s (1.23 fps), 11849.01 kb/s, Avg QP:20.92
Формат : Matroska
Версия формата : Version 4
Размер файла : 12,0 Гбайт
Продолжительность : 2 ч. 10 м.
Общий поток : 13,1 Мбит/сек
Название фильма : Форсаж.5.Fast.Five.2011.BDRip-HEVC.1080p
Дата кодирования : UTC 2020-04-07 13:06:30
Программа кодирования : mkvmerge v45.0.0 ('Heaven in Pennies') 64-bit
Библиотека кодирования : libebml v1.3.10 + libmatroska v1.5.2
Видео
Идентификатор : 1
Формат : HEVC
Формат/Информация : High Efficiency Video Coding
Профиль формата : Main 10@L4@Main
Идентификатор кодека : V_MPEGH/ISO/HEVC
Продолжительность : 2 ч. 10 м.
Битрейт : 11,8 Мбит/сек
Ширина : 1920 пикселей
Высота : 816 пикселей
Соотношение сторон : 2,35:1
Режим частоты кадров : Постоянный
Частота кадров : 23,976 (24000/1001) кадра/сек
Цветовое пространство : YUV
Субдискретизация насыщенности : 4:2:0
Битовая глубина : 10 бит
Бит/(Пиксели*Кадры) : 0.315
Размер потока : 10,8 Гбайт (90%)
Заголовок : Fast Five / Rip by OldGamer
Библиотека кодирования : x265 3.3+2-gd9a7411cc:[Windows][MSVC 1925][64 bit] 10bit
Настройки программы : cpuid=1111039 / frame-threads=3 / numa-pools=8 / wpp / no-pmode / no-pme / psnr / ssim / log-level=2 / input-csp=1 / input-res=1920x816 / interlace=0 / total-frames=187502 / level-idc=0 / high-tier=1 / uhd-bd=0 / ref=5 / no-allow-non-conformance / no-repeat-headers / annexb / no-aud / no-hrd / info / hash=0 / no-temporal-layers / open-gop / min-keyint=23 / keyint=240 / gop-lookahead=0 / bframes=16 / b-adapt=2 / b-pyramid / bframe-bias=0 / rc-lookahead=60 / lookahead-slices=0 / scenecut=40 / hist-scenecut=0 / radl=0 / no-splice / no-intra-refresh / ctu=64 / min-cu-size=8 / rect / amp / max-tu-size=32 / tu-inter-depth=4 / tu-intra-depth=4 / limit-tu=1 / rdoq-level=2 / dynamic-rd=0.00 / no-ssim-rd / signhide / no-tskip / nr-intra=0 / nr-inter=0 / no-constrained-intra / no-strong-intra-smoothing / max-merge=5 / limit-refs=3 / no-limit-modes / me=3 / subme=7 / merange=57 / temporal-mvp / no-frame-dup / no-hme / weightp / weightb / no-analyze-src-pics / deblock=-3:-3 / no-sao / no-sao-non-deblock / rd=6 / selective-sao=0 / no-early-skip / rskip / no-fast-intra / no-tskip-fast / no-cu-lossless / b-intra / no-splitrd-skip / rdpenalty=0 / psy-rd=2.00 / psy-rdoq=1.00 / no-rd-refine / no-lossless / cbqpoffs=0 / crqpoffs=0 / rc=crf / crf=19.0 / qcomp=0.78 / qpstep=4 / stats-write=0 / stats-read=0 / ipratio=1.40 / pbratio=1.30 / aq-mode=4 / aq-strength=0.70 / no-cutree / zone-count=1 / zones: / start-frame=178770 / end-frame=187484 / qp=36 / no-strict-cbr / qg-size=32 / no-rc-grain / qpmax=69 / qpmin=0 / no-const-vbv / sar=1 / overscan=0 / videoformat=5 / range=0 / colorprim=2 / transfer=2 / colormatrix=2 / chromaloc=0 / display-window=0 / cll=0,0 / min-luma=0 / max-luma=1023 / log2-max-poc-lsb=8 / vui-timing-info / vui-hrd-info / slices=1 / no-opt-qp-pps / no-opt-ref-list-length-pps / no-multi-pass-opt-rps / scenecut-bias=0.00 / hist-threshold=0.01 / no-opt-cu-delta-qp / no-aq-motion / no-hdr10 / no-hdr10-opt / no-dhdr10-opt / no-idr-recovery-sei / analysis-reuse-level=0 / analysis-save-reuse-level=0 / analysis-load-reuse-level=0 / scale-factor=0 / refine-intra=0 / refine-inter=0 / refine-mv=1 / refine-ctu-distortion=0 / no-limit-sao / ctu-info=0 / no-lowpass-dct / refine-analysis-type=0 / copy-pic=1 / max-ausize-factor=1.0 / no-dynamic-refine / no-single-sei / no-hevc-aq / no-svt / no-field / qp-adaptation-range=1.00 / no-scenecut-aware-qpconformance-window-offsets / right=0 / bottom=0
Язык : English
Default : Да
Forced : Нет
Аудио #1
Идентификатор : 2
Формат : AC-3
Формат/Информация : Audio Coding 3
Коммерческое название : Dolby Digital
Идентификатор кодека : A_AC3
Продолжительность : 2 ч. 10 м.
Вид битрейта : Постоянный
Битрейт : 640 Кбит/сек
Каналы : 6 каналов
Channel layout : L R C LFE Ls Rs
Частота : 48,0 КГц
Частота кадров : 31,250 кадров/сек (1536 SPF)
Битовая глубина : 16 бит
Метод сжатия : С потерями
Размер потока : 597 Мбайт (5%)
Заголовок : Dub
Язык : Russian
ServiceKind/ : Complete Main
Default : Да
Forced : Нет
Аудио #2
Идентификатор : 3
Формат : AC-3
Формат/Информация : Audio Coding 3
Коммерческое название : Dolby Digital
Идентификатор кодека : A_AC3
Продолжительность : 2 ч. 10 м.
Вид битрейта : Постоянный
Битрейт : 640 Кбит/сек
Каналы : 6 каналов
Channel layout : L R C LFE Ls Rs
Частота : 48,0 КГц
Частота кадров : 31,250 кадров/сек (1536 SPF)
Битовая глубина : 16 бит
Метод сжатия : С потерями
Размер потока : 597 Мбайт (5%)
Язык : English
ServiceKind/ : Complete Main
Default : Нет
Forced : Нет
Текст #1
Идентификатор : 4
Формат : UTF-8
Идентификатор кодека : S_TEXT/UTF8
Идентификатор кодека/Информация : UTF-8 Plain Text
Продолжительность : 1 ч. 13 м.
Битрейт : 0 бит/сек
ElementCount : 10
Размер потока : 365 байт (0%)
Заголовок : Forced
Язык : Russian
Default : Нет
Forced : Нет
Текст #2
Идентификатор : 5
Формат : UTF-8
Идентификатор кодека : S_TEXT/UTF8
Идентификатор кодека/Информация : UTF-8 Plain Text
Продолжительность : 2 ч. 3 м.
Битрейт : 60 бит/сек
ElementCount : 1270
Размер потока : 54,9 Кбайт (0%)
Заголовок : Full
Язык : Russian
Default : Нет
Forced : Нет
Текст #3
Идентификатор : 6
Формат : UTF-8
Идентификатор кодека : S_TEXT/UTF8
Идентификатор кодека/Информация : UTF-8 Plain Text
Продолжительность : 2 ч. 0 м.
Битрейт : 4 бит/сек
ElementCount : 125
Размер потока : 3,64 Кбайт (0%)
Заголовок : Forced
Язык : English
Default : Нет
Forced : Нет
Текст #4
Идентификатор : 7
Формат : UTF-8
Идентификатор кодека : S_TEXT/UTF8
Идентификатор кодека/Информация : UTF-8 Plain Text
Продолжительность : 2 ч. 3 м.
Битрейт : 45 бит/сек
ElementCount : 1374
Размер потока : 41,2 Кбайт (0%)
Заголовок : SDH
Язык : English
Default : Нет
Forced : Нет
Меню
00:00:00.000 : en:(01)00:00:00:000
00:07:45.715 : en:(02)00:07:45:715
00:17:29.465 : en:(03)00:17:29:465
00:23:01.838 : en:(04)00:23:01:838
00:28:21.574 : en:(05)00:28:21:574
00:34:55.635 : en:(06)00:34:55:635
00:40:46.318 : en:(07)00:40:46:318
00:48:41.585 : en:(08)00:48:41:585
00:55:20.317 : en:(09)00:55:20:317
01:03:09.952 : en:(10)01:03:09:952
01:10:44.657 : en:(11)01:10:44:657
01:18:25.867 : en:(12)01:18:25:867
01:22:36.201 : en:(13)01:22:36:201
01:27:58.731 : en:(14)01:27:58:731
01:31:53.424 : en:(15)01:31:53:424
01:39:13.322 : en:(16)01:39:13:322
01:47:00.747 : en:(17)01:47:00:747
01:54:50.133 : en:(18)01:54:50:133
01:59:15.231 : en:(19)01:59:15:231
02:03:24.397 : en:(20)02:03:24:397
02:10:21.021 : en:(21)02:10:21:021
Скриншоты

Форсаж 6 / Furious 6 (2013) | Extended Cut | D

Название: Форсаж 6
Оригинальное название: Furious 6
Год выхода: 2013
Жанр: боевик, триллер, драма, криминал
Режиссер: Джастин Лин
В ролях: Вин Дизель, Пол Уокер, Дуэйн Джонсон, Мишель Родригес, Люк Эванс, Тайриз Гибсон, Лудакрис, Галь Гадот, Джина Карано, Джордана Брюстер
О фильме: После того как Доминик и Брайн побывали в Рио, где они ограбили и свергли империю вора в законе, их команда получила 100 миллионов, и наши герои оказались разбросаны по всему миру. Но их привычка вечно жить в бегах не даёт им покоя. Между тем, Хоббс отслеживал организацию смертельно опасных наёмников-водителей по двенадцати странам. Единственный способ остановить эту криминальную группу — это превзойти их на улицах, поэтому Хоббс просит Доминика собрать его элитную команду в Лондоне. За это он обещает полное помилование для Доминика и его друзей, чтобы они смогли наконец вернуться домой к своей семье.

Страна: США, Япония, Испания, Великобритания
Студия: Universal Pictures, One Race Films, Original Film, Relativity Media
Продолжительность: 02:11:02
Перевод: дублированный
Качество: BDRip-HEVC 1080p
Кодек: HEVC (x265)
Видео: 1920x816 (2,35:1), 8867 кбит/сек, 0.236 бит/(Пиксели*Кадры), 23.976 (24000/1001) кадр/сек, HEVC (Main10@L.4.1@High) 10 бит
Звук:
Аудио1: AC3, 6 ch, 640 Kbps - русский Дублированный
Аудио2: AC3, 6 ch, 640 Kbps - english Original
Субтитры: Русские форсированные и полные (SRT), English full (SDH)
Навигация по главам: Есть

Информация по видеофайлу

x265 info: frame I: 801, Avg QP:17.91 kb/s: 19714.03
x265 info: frame P: 36789, Avg QP:19.53 kb/s: 14478.18
x265 info: frame B: 150916, Avg QP:21.21 kb/s: 7440.23
x265 info: Weighted P-Frames: Y:6.4% UV:5.1%
x265 info: Weighted B-Frames: Y:8.0% UV:5.7%
x265 info: consecutive B-frames: 5.8% 7.4% 13.1% 24.5% 11.7% 18.1% 5.1% 5.4% 2.1% 1.9% 1.8% 1.6% 0.7% 0.4% 0.4%
x265 info: encoded 188506 frames in 140386.95s (1.34 fps), 8865.92 kb/s, Avg QP:20.87
Формат : Matroska
Версия формата : Version 4
Размер файла : 9,29 Гбайт
Продолжительность : 2 ч. 11 м.
Общий поток : 10,1 Мбит/сек
Название фильма : Форсаж.6.Furious.6.Extended.Cut.2013.BDRip-HEVC.1080p
Дата кодирования : UTC 2020-04-09 05:52:04
Программа кодирования : mkvmerge v45.0.0 ('Heaven in Pennies') 64-bit
Библиотека кодирования : libebml v1.3.10 + libmatroska v1.5.2
Видео
Идентификатор : 1
Формат : HEVC
Формат/Информация : High Efficiency Video Coding
Профиль формата : Main 10@L4@Main
Идентификатор кодека : V_MPEGH/ISO/HEVC
Продолжительность : 2 ч. 11 м.
Битрейт : 8867 Кбит/сек
Ширина : 1920 пикселей
Высота : 816 пикселей
Соотношение сторон : 2,35:1
Режим частоты кадров : Постоянный
Частота кадров : 23,976 (24000/1001) кадра/сек
Цветовое пространство : YUV
Субдискретизация насыщенности : 4:2:0
Битовая глубина : 10 бит
Бит/(Пиксели*Кадры) : 0.236
Размер потока : 8,12 Гбайт (87%)
Заголовок : Furious 6 / Rip by OldGamer
Библиотека кодирования : x265 3.3+2-gd9a7411cc:[Windows][MSVC 1925][64 bit] 10bit
Настройки программы : cpuid=1111039 / frame-threads=3 / numa-pools=8 / wpp / no-pmode / no-pme / psnr / ssim / log-level=2 / input-csp=1 / input-res=1920x816 / interlace=0 / total-frames=188506 / level-idc=0 / high-tier=1 / uhd-bd=0 / ref=5 / no-allow-non-conformance / no-repeat-headers / annexb / no-aud / no-hrd / info / hash=0 / no-temporal-layers / open-gop / min-keyint=23 / keyint=240 / gop-lookahead=0 / bframes=14 / b-adapt=2 / b-pyramid / bframe-bias=0 / rc-lookahead=60 / lookahead-slices=0 / scenecut=40 / hist-scenecut=0 / radl=0 / no-splice / no-intra-refresh / ctu=64 / min-cu-size=8 / rect / amp / max-tu-size=32 / tu-inter-depth=4 / tu-intra-depth=4 / limit-tu=1 / rdoq-level=2 / dynamic-rd=0.00 / no-ssim-rd / signhide / no-tskip / nr-intra=0 / nr-inter=0 / no-constrained-intra / no-strong-intra-smoothing / max-merge=5 / limit-refs=3 / no-limit-modes / me=3 / subme=7 / merange=57 / temporal-mvp / no-frame-dup / no-hme / weightp / weightb / no-analyze-src-pics / deblock=-3:-3 / no-sao / no-sao-non-deblock / rd=6 / selective-sao=0 / no-early-skip / rskip / no-fast-intra / no-tskip-fast / no-cu-lossless / b-intra / no-splitrd-skip / rdpenalty=0 / psy-rd=2.00 / psy-rdoq=1.00 / no-rd-refine / no-lossless / cbqpoffs=0 / crqpoffs=0 / rc=crf / crf=19.1 / qcomp=0.78 / qpstep=4 / stats-write=0 / stats-read=0 / ipratio=1.40 / pbratio=1.30 / aq-mode=4 / aq-strength=0.70 / no-cutree / zone-count=1 / zones: / start-frame=179109 / end-frame=188495 / qp=36 / no-strict-cbr / qg-size=32 / no-rc-grain / qpmax=69 / qpmin=0 / no-const-vbv / sar=1 / overscan=0 / videoformat=5 / range=0 / colorprim=2 / transfer=2 / colormatrix=2 / chromaloc=0 / display-window=0 / cll=0,0 / min-luma=0 / max-luma=1023 / log2-max-poc-lsb=8 / vui-timing-info / vui-hrd-info / slices=1 / no-opt-qp-pps / no-opt-ref-list-length-pps / no-multi-pass-opt-rps / scenecut-bias=0.00 / hist-threshold=0.01 / no-opt-cu-delta-qp / no-aq-motion / no-hdr10 / no-hdr10-opt / no-dhdr10-opt / no-idr-recovery-sei / analysis-reuse-level=0 / analysis-save-reuse-level=0 / analysis-load-reuse-level=0 / scale-factor=0 / refine-intra=0 / refine-inter=0 / refine-mv=1 / refine-ctu-distortion=0 / no-limit-sao / ctu-info=0 / no-lowpass-dct / refine-analysis-type=0 / copy-pic=1 / max-ausize-factor=1.0 / no-dynamic-refine / no-single-sei / no-hevc-aq / no-svt / no-field / qp-adaptation-range=1.00 / no-scenecut-aware-qpconformance-window-offsets / right=0 / bottom=0
Язык : English
Default : Да
Forced : Нет
Аудио #1
Идентификатор : 2
Формат : AC-3
Формат/Информация : Audio Coding 3
Коммерческое название : Dolby Digital
Идентификатор кодека : A_AC3
Продолжительность : 2 ч. 11 м.
Вид битрейта : Постоянный
Битрейт : 640 Кбит/сек
Каналы : 6 каналов
Channel layout : L R C LFE Ls Rs
Частота : 48,0 КГц
Частота кадров : 31,250 кадров/сек (1536 SPF)
Битовая глубина : 16 бит
Метод сжатия : С потерями
Размер потока : 600 Мбайт (6%)
Заголовок : Dub
Язык : Russian
ServiceKind/ : Complete Main
Default : Да
Forced : Нет
Аудио #2
Идентификатор : 3
Формат : AC-3
Формат/Информация : Audio Coding 3
Коммерческое название : Dolby Digital
Идентификатор кодека : A_AC3
Продолжительность : 2 ч. 11 м.
Вид битрейта : Постоянный
Битрейт : 640 Кбит/сек
Каналы : 6 каналов
Channel layout : L R C LFE Ls Rs
Частота : 48,0 КГц
Частота кадров : 31,250 кадров/сек (1536 SPF)
Битовая глубина : 16 бит
Метод сжатия : С потерями
Размер потока : 600 Мбайт (6%)
Язык : English
ServiceKind/ : Complete Main
Default : Нет
Forced : Нет
Текст #1
Идентификатор : 4
Формат : UTF-8
Идентификатор кодека : S_TEXT/UTF8
Идентификатор кодека/Информация : UTF-8 Plain Text
Продолжительность : 2 ч. 9 м.
Битрейт : 1 бит/сек
ElementCount : 45
Размер потока : 1,46 Кбайт (0%)
Заголовок : Forced
Язык : Russian
Default : Нет
Forced : Нет
Текст #2
Идентификатор : 5
Формат : UTF-8
Идентификатор кодека : S_TEXT/UTF8
Идентификатор кодека/Информация : UTF-8 Plain Text
Продолжительность : 2 ч. 9 м.
Битрейт : 52 бит/сек
ElementCount : 1248
Размер потока : 50,0 Кбайт (0%)
Заголовок : Full
Язык : Russian
Default : Нет
Forced : Нет
Текст #3
Идентификатор : 6
Формат : UTF-8
Идентификатор кодека : S_TEXT/UTF8
Идентификатор кодека/Информация : UTF-8 Plain Text
Продолжительность : 2 ч. 3 м.
Битрейт : 46 бит/сек
ElementCount : 1458
Размер потока : 42,0 Кбайт (0%)
Заголовок : SDH
Язык : English
Default : Нет
Forced : Нет
Меню
00:00:00.000 : en:(01)00:00:00:000
00:04:21.010 : en:(02)00:04:21:010
00:10:19.118 : en:(03)00:10:19:118
00:15:35.267 : en:(04)00:15:35:267
00:19:18.574 : en:(05)00:19:18:574
00:24:32.721 : en:(06)00:24:32:721
00:30:23.404 : en:(07)00:30:23:404
00:36:28.477 : en:(08)00:36:28:477
00:44:01.305 : en:(09)00:44:01:305
00:50:50.255 : en:(10)00:50:50:255
00:56:54.327 : en:(11)00:56:54:327
01:04:54.056 : en:(12)01:04:54:056
01:10:14.293 : en:(13)01:10:14:293
01:19:13.456 : en:(14)01:19:13:456
01:25:41.177 : en:(15)01:25:41:177
01:34:53.771 : en:(16)01:34:53:771
01:41:48.560 : en:(17)01:41:48:560
01:48:31.838 : en:(18)01:48:31:838
01:57:48.811 : en:(19)01:57:48:811
02:03:04.418 : en:(20)02:03:04:418
02:11:02.646 : en:(21)02:11:02:646
Скриншоты

Форсаж 7 / Furious Seven (2015) | Extended Cut | D

Название: Форсаж 7
Оригинальное название: Furious Seven
Год выхода: 2015
Жанр: боевик, приключения, триллер
Режиссер: Джеймс Ван
В ролях: Вин Дизель, Пол Уокер, Джейсон Стэйтем, Мишель Родригес, Дуэйн Джонсон, Тайриз Гибсон, Лудакрис, Натали Эммануэль, Джордана Брюстер, Курт Рассел
О фильме: Они покорили Токио и Рио, Лос-Анджелес и Лондон. Но мир больше не играет по их правилам. Зной арабских пустынь, неприлично высокие небоскребы, миллионы долларов на колесах и очень, очень знаменитый злодей. Скорость не знает границ.

Страна: США
Студия: Universal Pictures, Original Film, One Race Films, China Film Co., Media Rights Capital
Продолжительность: 02:19:55
Перевод: дублированный
Качество: BDRip-HEVC 1080p
Кодек: HEVC (x265)
Видео: 1920x800 (2,40:1), 6663 кбит/сек, 0.181 бит/(Пиксели*Кадры), 23.976 (24000/1001) кадр/сек, HEVC (Main10@L.4.1@High) 10 бит
Звук:
Аудио1: AC3, 6 ch, 448 Kbps - русский Дублированный
Аудио2: AC3, 6 ch, 640 Kbps - english Original
Субтитры: Русские форсированные и полные (SRT), English forced and full (SDH)
Навигация по главам: Есть

Информация по видеофайлу

x265 info: frame I: 864, Avg QP:17.71 kb/s: 16622.51
x265 info: frame P: 49939, Avg QP:19.33 kb/s: 11279.44
x265 info: frame B: 150458, Avg QP:21.20 kb/s: 5072.95
x265 info: Weighted P-Frames: Y:6.0% UV:5.0%
x265 info: Weighted B-Frames: Y:8.1% UV:6.5%
x265 info: consecutive B-frames: 14.1% 10.4% 16.9% 25.4% 10.0% 14.4% 3.2% 3.4% 1.0% 0.6% 0.4% 0.3% 0.1%
x265 info: encoded 201261 frames in 128716.59s (1.56 fps), 6662.55 kb/s, Avg QP:20.72
Формат : Matroska
Версия формата : Version 4
Размер файла : 7,58 Гбайт
Продолжительность : 2 ч. 19 м.
Общий поток : 7753 Кбит/сек
Название фильма : Форсаж.7.Furious.Seven.Extended.Cut.2015.BDRip-HEVC.1080p
Дата кодирования : UTC 2020-04-05 18:31:11
Программа кодирования : mkvmerge v45.0.0 ('Heaven in Pennies') 64-bit
Библиотека кодирования : libebml v1.3.10 + libmatroska v1.5.2
Видео
Идентификатор : 1
Формат : HEVC
Формат/Информация : High Efficiency Video Coding
Профиль формата : Main 10@L4@Main
Идентификатор кодека : V_MPEGH/ISO/HEVC
Продолжительность : 2 ч. 19 м.
Битрейт : 6663 Кбит/сек
Ширина : 1920 пикселей
Высота : 800 пикселей
Соотношение сторон : 2,40:1
Режим частоты кадров : Постоянный
Частота кадров : 23,976 (24000/1001) кадра/сек
Цветовое пространство : YUV
Субдискретизация насыщенности : 4:2:0
Битовая глубина : 10 бит
Бит/(Пиксели*Кадры) : 0.181
Размер потока : 6,51 Гбайт (86%)
Заголовок : Furious Seven / Rip by OldGamer
Библиотека кодирования : x265 3.3+2-gd9a7411cc:[Windows][MSVC 1925][64 bit] 10bit
Настройки программы : cpuid=1111039 / frame-threads=3 / numa-pools=8 / wpp / no-pmode / no-pme / psnr / ssim / log-level=2 / input-csp=1 / input-res=1920x800 / interlace=0 / total-frames=201261 / level-idc=0 / high-tier=1 / uhd-bd=0 / ref=5 / no-allow-non-conformance / no-repeat-headers / annexb / no-aud / no-hrd / info / hash=0 / no-temporal-layers / open-gop / min-keyint=23 / keyint=240 / gop-lookahead=0 / bframes=12 / b-adapt=2 / b-pyramid / bframe-bias=0 / rc-lookahead=60 / lookahead-slices=0 / scenecut=40 / hist-scenecut=0 / radl=0 / no-splice / no-intra-refresh / ctu=64 / min-cu-size=8 / rect / amp / max-tu-size=32 / tu-inter-depth=4 / tu-intra-depth=4 / limit-tu=1 / rdoq-level=2 / dynamic-rd=0.00 / no-ssim-rd / signhide / no-tskip / nr-intra=0 / nr-inter=0 / no-constrained-intra / no-strong-intra-smoothing / max-merge=5 / limit-refs=3 / no-limit-modes / me=3 / subme=7 / merange=57 / temporal-mvp / no-frame-dup / no-hme / weightp / weightb / no-analyze-src-pics / deblock=-3:-3 / no-sao / no-sao-non-deblock / rd=6 / selective-sao=0 / no-early-skip / rskip / no-fast-intra / no-tskip-fast / no-cu-lossless / b-intra / no-splitrd-skip / rdpenalty=0 / psy-rd=2.00 / psy-rdoq=1.00 / no-rd-refine / no-lossless / cbqpoffs=0 / crqpoffs=0 / rc=crf / crf=19.0 / qcomp=0.78 / qpstep=4 / stats-write=0 / stats-read=0 / ipratio=1.40 / pbratio=1.30 / aq-mode=4 / aq-strength=0.70 / no-cutree / zone-count=1 / zones: / start-frame=189054 / end-frame=201249 / qp=36 / no-strict-cbr / qg-size=32 / no-rc-grain / qpmax=69 / qpmin=0 / no-const-vbv / sar=1 / overscan=0 / videoformat=5 / range=0 / colorprim=2 / transfer=2 / colormatrix=2 / chromaloc=0 / display-window=0 / cll=0,0 / min-luma=0 / max-luma=1023 / log2-max-poc-lsb=8 / vui-timing-info / vui-hrd-info / slices=1 / no-opt-qp-pps / no-opt-ref-list-length-pps / no-multi-pass-opt-rps / scenecut-bias=0.00 / hist-threshold=0.01 / no-opt-cu-delta-qp / no-aq-motion / no-hdr10 / no-hdr10-opt / no-dhdr10-opt / no-idr-recovery-sei / analysis-reuse-level=0 / analysis-save-reuse-level=0 / analysis-load-reuse-level=0 / scale-factor=0 / refine-intra=0 / refine-inter=0 / refine-mv=1 / refine-ctu-distortion=0 / no-limit-sao / ctu-info=0 / no-lowpass-dct / refine-analysis-type=0 / copy-pic=1 / max-ausize-factor=1.0 / no-dynamic-refine / no-single-sei / no-hevc-aq / no-svt / no-field / qp-adaptation-range=1.00 / no-scenecut-aware-qpconformance-window-offsets / right=0 / bottom=0
Язык : English
Default : Да
Forced : Нет
Аудио #1
Идентификатор : 2
Формат : AC-3
Формат/Информация : Audio Coding 3
Коммерческое название : Dolby Digital
Идентификатор кодека : A_AC3
Продолжительность : 2 ч. 19 м.
Вид битрейта : Постоянный
Битрейт : 448 Кбит/сек
Каналы : 6 каналов
Channel layout : L R C LFE Ls Rs
Частота : 48,0 КГц
Частота кадров : 31,250 кадров/сек (1536 SPF)
Битовая глубина : 16 бит
Метод сжатия : С потерями
Размер потока : 448 Мбайт (6%)
Заголовок : Dub
Язык : Russian
ServiceKind/ : Complete Main
Default : Да
Forced : Нет
Аудио #2
Идентификатор : 3
Формат : AC-3
Формат/Информация : Audio Coding 3
Коммерческое название : Dolby Digital
Идентификатор кодека : A_AC3
Продолжительность : 2 ч. 19 м.
Вид битрейта : Постоянный
Битрейт : 640 Кбит/сек
Каналы : 6 каналов
Channel layout : L R C LFE Ls Rs
Частота : 48,0 КГц
Частота кадров : 31,250 кадров/сек (1536 SPF)
Битовая глубина : 16 бит
Метод сжатия : С потерями
Размер потока : 640 Мбайт (8%)
Язык : English
ServiceKind/ : Complete Main
Default : Нет
Forced : Нет
Текст #1
Идентификатор : 4
Формат : UTF-8
Идентификатор кодека : S_TEXT/UTF8
Идентификатор кодека/Информация : UTF-8 Plain Text
Продолжительность : 2 ч. 14 м.
Битрейт : 2 бит/сек
ElementCount : 42
Размер потока : 2,32 Кбайт (0%)
Заголовок : Forced
Язык : Russian
Default : Нет
Forced : Нет
Текст #2
Идентификатор : 5
Формат : UTF-8
Идентификатор кодека : S_TEXT/UTF8
Идентификатор кодека/Информация : UTF-8 Plain Text
Продолжительность : 2 ч. 19 м.
Битрейт : 57 бит/сек
ElementCount : 1415
Размер потока : 58,3 Кбайт (0%)
Заголовок : Full
Язык : Russian
Default : Нет
Forced : Нет
Текст #3
Идентификатор : 6
Формат : UTF-8
Идентификатор кодека : S_TEXT/UTF8
Идентификатор кодека/Информация : UTF-8 Plain Text
Продолжительность : 2 ч. 10 м.
Битрейт : 50 бит/сек
ElementCount : 1667
Размер потока : 48,0 Кбайт (0%)
Заголовок : SDH
Язык : English
Default : Нет
Forced : Нет
Меню
00:00:00.000 : en:(01)00:00:00:000
00:04:39.946 : en:(02)00:04:39:946
00:11:29.480 : en:(03)00:11:29:480
00:16:39.289 : en:(04)00:16:39:289
00:25:54.052 : en:(05)00:25:54:052
00:33:43.896 : en:(06)00:33:43:896
00:41:44.585 : en:(07)00:41:44:585
00:46:41.006 : en:(08)00:46:41:006
00:52:10.710 : en:(09)00:52:10:710
01:02:31.414 : en:(10)01:02:31:414
01:06:16.680 : en:(11)01:06:16:680
01:14:16.868 : en:(12)01:14:16:868
01:22:34.032 : en:(13)01:22:34:032
01:33:21.137 : en:(14)01:33:21:137
01:38:27.484 : en:(15)01:38:27:484
01:45:40.083 : en:(16)01:45:40:083
01:53:54.452 : en:(17)01:53:54:452
01:58:31.062 : en:(18)01:58:31:062
02:06:19.863 : en:(19)02:06:19:863
02:11:31.174 : en:(20)02:11:31:174
02:19:54.594 : en:(21)02:19:54:594
Скриншоты

Форсаж 8 / The Fate of the Furious (2017) | D

Название: Форсаж 8
Оригинальное название: The Fate of the Furious
Год выхода: 2017
Жанр: боевик, криминал, триллер
Режиссер: Ф. Гэри Грей
В ролях: Вин Дизель, Дуэйн Джонсон, Джейсон Стэйтем, Мишель Родригес, Тайриз Гибсон, Лудакрис, Натали Эммануэль, Курт Рассел, Скотт Иствуд, Шарлиз Терон
О фильме: Пристегните ремни — гонка продолжается. Гавана, Берлин, Нью-Йорк — для самой крутой команды в мире нет ничего невозможного, пока они вместе. Но когда на их пути окажется одна из самых красивых женщин на планете и по совместительству королева киберпреступности, дороги друзей разойдутся.

Страна: США, Китай, Япония
Студия: Universal Pictures, Original Film, One Race Films
Продолжительность: 02:15:57
Перевод: дублированный
Качество: BDRip-HEVC 1080p
Кодек: HEVC (x265)
Видео: 1920x800 (2,40:1), 5737 кбит/сек, 0.156 бит/(Пиксели*Кадры), 23.976 (24000/1001) кадр/сек, HEVC (Main10@L.4.1@High) 10 бит
Звук:
Аудио1: AC3, 6 ch, 640 Kbps - русский Дублированный
Аудио2: AC3, 6 ch, 640 Kbps - english Original
Субтитры: Русские форсированные и полные (SRT), English full (SDH)
Навигация по главам: Есть

Информация по видеофайлу

x265 info: frame I: 829, Avg QP:17.94 kb/s: 15394.69
x265 info: frame P: 43286, Avg QP:19.95 kb/s: 10435.76
x265 info: frame B: 151465, Avg QP:21.23 kb/s: 4340.14
x265 info: Weighted P-Frames: Y:3.7% UV:3.0%
x265 info: Weighted B-Frames: Y:4.3% UV:3.3%
x265 info: consecutive B-frames: 10.2% 8.6% 17.3% 26.4% 9.4% 12.3% 4.3% 5.6% 1.9% 1.5% 0.9% 0.7% 0.4% 0.3% 0.3%
x265 info: encoded 195580 frames in 127748.88s (1.53 fps), 5736.09 kb/s, Avg QP:20.93
Формат : Matroska
Версия формата : Version 4
Размер файла : 6,67 Гбайт
Продолжительность : 2 ч. 15 м.
Общий поток : 7019 Кбит/сек
Название фильма : Форсаж.8.The.Fate.of.the.Furious.2017.BDRip-HEVC.1080p
Дата кодирования : UTC 2020-04-10 17:21:44
Программа кодирования : mkvmerge v45.0.0 ('Heaven in Pennies') 64-bit
Библиотека кодирования : libebml v1.3.10 + libmatroska v1.5.2
Видео
Идентификатор : 1
Формат : HEVC
Формат/Информация : High Efficiency Video Coding
Профиль формата : Main 10@L4@Main
Идентификатор кодека : V_MPEGH/ISO/HEVC
Продолжительность : 2 ч. 15 м.
Битрейт : 5737 Кбит/сек
Ширина : 1920 пикселей
Высота : 800 пикселей
Соотношение сторон : 2,40:1
Режим частоты кадров : Постоянный
Частота кадров : 23,976 (24000/1001) кадра/сек
Цветовое пространство : YUV
Субдискретизация насыщенности : 4:2:0
Битовая глубина : 10 бит
Бит/(Пиксели*Кадры) : 0.156
Размер потока : 5,45 Гбайт (82%)
Заголовок : The Fate of the Furious / Rip by OldGamer
Библиотека кодирования : x265 3.3+2-gd9a7411cc:[Windows][MSVC 1925][64 bit] 10bit
Настройки программы : cpuid=1111039 / frame-threads=3 / numa-pools=8 / wpp / no-pmode / no-pme / psnr / ssim / log-level=2 / input-csp=1 / input-res=1920x800 / interlace=0 / total-frames=195580 / level-idc=0 / high-tier=1 / uhd-bd=0 / ref=5 / no-allow-non-conformance / no-repeat-headers / annexb / no-aud / no-hrd / info / hash=0 / no-temporal-layers / open-gop / min-keyint=23 / keyint=240 / gop-lookahead=0 / bframes=14 / b-adapt=2 / b-pyramid / bframe-bias=0 / rc-lookahead=60 / lookahead-slices=0 / scenecut=40 / hist-scenecut=0 / radl=0 / no-splice / no-intra-refresh / ctu=64 / min-cu-size=8 / rect / amp / max-tu-size=32 / tu-inter-depth=4 / tu-intra-depth=4 / limit-tu=1 / rdoq-level=2 / dynamic-rd=0.00 / no-ssim-rd / signhide / no-tskip / nr-intra=0 / nr-inter=0 / no-constrained-intra / no-strong-intra-smoothing / max-merge=5 / limit-refs=3 / no-limit-modes / me=3 / subme=7 / merange=57 / temporal-mvp / no-frame-dup / no-hme / weightp / weightb / no-analyze-src-pics / deblock=-3:-3 / no-sao / no-sao-non-deblock / rd=6 / selective-sao=0 / no-early-skip / rskip / no-fast-intra / no-tskip-fast / no-cu-lossless / b-intra / no-splitrd-skip / rdpenalty=0 / psy-rd=2.00 / psy-rdoq=1.00 / no-rd-refine / no-lossless / cbqpoffs=0 / crqpoffs=0 / rc=crf / crf=19.2 / qcomp=0.78 / qpstep=4 / stats-write=0 / stats-read=0 / ipratio=1.40 / pbratio=1.30 / aq-mode=4 / aq-strength=0.70 / no-cutree / zone-count=1 / zones: / start-frame=182530 / end-frame=195561 / qp=36 / no-strict-cbr / qg-size=32 / no-rc-grain / qpmax=69 / qpmin=0 / no-const-vbv / sar=1 / overscan=0 / videoformat=5 / range=0 / colorprim=2 / transfer=2 / colormatrix=2 / chromaloc=0 / display-window=0 / cll=0,0 / min-luma=0 / max-luma=1023 / log2-max-poc-lsb=8 / vui-timing-info / vui-hrd-info / slices=1 / no-opt-qp-pps / no-opt-ref-list-length-pps / no-multi-pass-opt-rps / scenecut-bias=0.00 / hist-threshold=0.01 / no-opt-cu-delta-qp / no-aq-motion / no-hdr10 / no-hdr10-opt / no-dhdr10-opt / no-idr-recovery-sei / analysis-reuse-level=0 / analysis-save-reuse-level=0 / analysis-load-reuse-level=0 / scale-factor=0 / refine-intra=0 / refine-inter=0 / refine-mv=1 / refine-ctu-distortion=0 / no-limit-sao / ctu-info=0 / no-lowpass-dct / refine-analysis-type=0 / copy-pic=1 / max-ausize-factor=1.0 / no-dynamic-refine / no-single-sei / no-hevc-aq / no-svt / no-field / qp-adaptation-range=1.00 / no-scenecut-aware-qpconformance-window-offsets / right=0 / bottom=0
Язык : English
Default : Да
Forced : Нет
Аудио #1
Идентификатор : 2
Формат : AC-3
Формат/Информация : Audio Coding 3
Коммерческое название : Dolby Digital
Идентификатор кодека : A_AC3
Продолжительность : 2 ч. 15 м.
Вид битрейта : Постоянный
Битрейт : 640 Кбит/сек
Каналы : 6 каналов
Channel layout : L R C LFE Ls Rs
Частота : 48,0 КГц
Частота кадров : 31,250 кадров/сек (1536 SPF)
Битовая глубина : 16 бит
Метод сжатия : С потерями
Размер потока : 622 Мбайт (9%)
Заголовок : Dub
Язык : Russian
ServiceKind : Complete Main
Default : Да
Forced : Нет
Аудио #2
Идентификатор : 3
Формат : AC-3
Формат/Информация : Audio Coding 3
Коммерческое название : Dolby Digital
Идентификатор кодека : A_AC3
Продолжительность : 2 ч. 15 м.
Вид битрейта : Постоянный
Битрейт : 640 Кбит/сек
Каналы : 6 каналов
Channel layout : L R C LFE Ls Rs
Частота : 48,0 КГц
Частота кадров : 31,250 кадров/сек (1536 SPF)
Битовая глубина : 16 бит
Метод сжатия : С потерями
Размер потока : 622 Мбайт (9%)
Язык : English
ServiceKind : Complete Main
Default : Нет
Forced : Нет
Текст #1
Идентификатор : 4
Формат : UTF-8
Идентификатор кодека : S_TEXT/UTF8
Идентификатор кодека/Информация : UTF-8 Plain Text
Продолжительность : 2 ч. 7 м.
Битрейт : 1 бит/сек
ElementCount : 43
Размер потока : 1,57 Кбайт (0%)
Заголовок : Forced
Язык : Russian
Default : Нет
Forced : Нет
Текст #2
Идентификатор : 5
Формат : UTF-8
Идентификатор кодека : S_TEXT/UTF8
Идентификатор кодека/Информация : UTF-8 Plain Text
Продолжительность : 2 ч. 14 м.
Битрейт : 76 бит/сек
ElementCount : 1513
Размер потока : 75,9 Кбайт (0%)
Заголовок : Full
Язык : Russian
Default : Нет
Forced : Нет
Текст #3
Идентификатор : 6
Формат : UTF-8
Идентификатор кодека : S_TEXT/UTF8
Идентификатор кодека/Информация : UTF-8 Plain Text
Продолжительность : 2 ч. 4 м.
Битрейт : 59 бит/сек
ElementCount : 1841
Размер потока : 54,0 Кбайт (0%)
Заголовок : SDH
Язык : English
Default : Нет
Forced : Нет
Меню
00:00:00.000 : en:00:00:00.000
00:13:08.913 : en:00:13:08.913
00:20:30.771 : en:00:20:30.771
00:26:38.639 : en:00:26:38.639
00:32:26.778 : en:00:32:26.778
00:36:40.573 : en:00:36:40.573
00:43:35.613 : en:00:43:35.613
00:47:45.780 : en:00:47:45.780
00:56:00.732 : en:00:56:00.732
01:04:08.303 : en:01:04:08.303
01:09:08.061 : en:01:09:08.061
01:13:24.275 : en:01:13:24.275
01:21:25.714 : en:01:21:25.714
01:29:29.948 : en:01:29:29.948
01:35:12.457 : en:01:35:12.457
01:39:55.781 : en:01:39:55.781
01:45:00.711 : en:01:45:00.711
01:53:01.858 : en:01:53:01.858
02:01:51.262 : en:02:01:51.262
02:06:45.097 : en:02:06:45.097
Скриншоты

Форсаж: Хоббс и Шоу / Fast & Furious Presents: Hobbs & Shaw (2019) | D

Название: Форсаж: Хоббс и Шоу
Оригинальное название: Fast & Furious Presents: Hobbs & Shaw
Год выхода: 2019
Жанр: боевик, приключения
Режиссер: Дэвид Литч
В ролях: Дуэйн Джонсон, Джейсон Стэйтем, Ванесса Кирби, Идрис Эльба, Эдди Марсан, Хелен Миррен, Райан Рейнольдс, Эйса Гонсалес, Клифф Кёртис, Элиана Суа
О фильме: Люк Хоббс — американский элитный спецагент, он любит удобную спортивную одежду, большие пикапы и здоровое питание. Декард Шоу — британский пижон, бывший сотрудник разведки, предпочитает дорогие костюмы, спортивные авто и пабы. Эти двое терпеть друг друга не могут. Но если кто-то угрожает их семьям, они готовы пойти на всё. Даже на работу в команде.

Страна: США
Студия: Seven Bucks Productions, Chris Morgan Productions
Продолжительность: 02:16:42
Перевод: дублированный
Качество: BDRip-HEVC 1080p
Кодек: HEVC (x265)
Видео: 1920x800 (2,40:1), 5319 кбит/сек, 0.144 бит/(Пиксели*Кадры), 23.976 (24000/1001) кадр/сек, HEVC (Main10@L.4.1@High) 10 бит
Звук:
Аудио1: AC3, 6 ch, 640 Kbps - русский Дублированный
Аудио2: AC3, 6 ch, 640 Kbps - english Original
Субтитры: Русские форсированные и полные (SRT), English full (SRT, SDH)
Навигация по главам: Есть

Информация по видеофайлу

x265 info: frame I: 824, Avg QP:18.36 kb/s: 16300.25
x265 info: frame P: 40317, Avg QP:20.08 kb/s: 10411.36
x265 info: frame B: 155515, Avg QP:21.74 kb/s: 3940.26
x265 info: Weighted P-Frames: Y:4.8% UV:4.1%
x265 info: Weighted B-Frames: Y:5.4% UV:4.4%
x265 info: consecutive B-frames: 6.2% 8.0% 12.0% 26.3% 13.8% 16.6% 4.9% 6.1% 2.1% 1.7% 1.0% 0.6% 0.3% 0.1% 0.1% 0.1% 0.1%
x265 info: encoded 196656 frames in 186174.57s (1.06 fps), 5318.71 kb/s, Avg QP:21.38
Формат : Matroska
Версия формата : Version 4
Размер файла : 6,30 Гбайт
Продолжительность : 2 ч. 16 м.
Общий поток : 6602 Кбит/сек
Название фильма : Форсаж.Хоббс.и.Шоу.Fast.&.Furious.Presents.Hobbs.&.Shaw.2019.BDRip-HEVC.1080p
Дата кодирования : UTC 2020-04-09 15:41:38
Программа кодирования : mkvmerge v45.0.0 ('Heaven in Pennies') 64-bit
Библиотека кодирования : libebml v1.3.10 + libmatroska v1.5.2
Видео
Идентификатор : 1
Формат : HEVC
Формат/Информация : High Efficiency Video Coding
Профиль формата : Main 10@L4.1@High
Идентификатор кодека : V_MPEGH/ISO/HEVC
Продолжительность : 2 ч. 16 м.
Битрейт : 5319 Кбит/сек
Ширина : 1920 пикселей
Высота : 800 пикселей
Соотношение сторон : 2,40:1
Режим частоты кадров : Постоянный
Частота кадров : 23,976 (24000/1001) кадра/сек
Цветовое пространство : YUV
Субдискретизация насыщенности : 4:2:0
Битовая глубина : 10 бит
Бит/(Пиксели*Кадры) : 0.144
Размер потока : 5,08 Гбайт (81%)
Заголовок : Fast & Furious Presents: Hobbs & Shaw / Rip by OldGamer
Библиотека кодирования : x265 3.3+2-gd9a7411cc:[Windows][MSVC 1925][64 bit] 10bit
Настройки программы : cpuid=1111039 / frame-threads=3 / numa-pools=12 / wpp / no-pmode / no-pme / no-psnr / no-ssim / log-level=2 / input-csp=1 / input-res=1920x800 / interlace=0 / total-frames=196656 / level-idc=41 / high-tier=1 / uhd-bd=0 / ref=5 / no-allow-non-conformance / no-repeat-headers / annexb / no-aud / no-hrd / info / hash=0 / no-temporal-layers / open-gop / min-keyint=23 / keyint=240 / gop-lookahead=0 / bframes=16 / b-adapt=2 / b-pyramid / bframe-bias=0 / rc-lookahead=40 / lookahead-slices=0 / scenecut=40 / hist-scenecut=0 / radl=0 / no-splice / no-intra-refresh / ctu=64 / min-cu-size=8 / rect / amp / max-tu-size=32 / tu-inter-depth=4 / tu-intra-depth=4 / limit-tu=1 / rdoq-level=2 / dynamic-rd=0.00 / no-ssim-rd / signhide / no-tskip / nr-intra=0 / nr-inter=0 / no-constrained-intra / no-strong-intra-smoothing / max-merge=5 / limit-refs=3 / no-limit-modes / me=3 / subme=7 / merange=57 / temporal-mvp / no-frame-dup / no-hme / weightp / weightb / no-analyze-src-pics / deblock=-3:-3 / no-sao / no-sao-non-deblock / rd=6 / selective-sao=0 / no-early-skip / rskip / no-fast-intra / no-tskip-fast / no-cu-lossless / b-intra / no-splitrd-skip / rdpenalty=0 / psy-rd=2.00 / psy-rdoq=1.00 / no-rd-refine / no-lossless / cbqpoffs=0 / crqpoffs=0 / rc=crf / crf=19.2 / qcomp=0.78 / qpstep=4 / stats-write=0 / stats-read=0 / vbv-maxrate=50000 / vbv-bufsize=50000 / vbv-init=0.9 / crf-max=0.0 / crf-min=0.0 / ipratio=1.40 / pbratio=1.30 / aq-mode=4 / aq-strength=0.70 / no-cutree / zone-count=2 / zones: / start-frame=180570 / end-frame=182826 / qp=36 / zones: / start-frame=184360 / end-frame=196645 / qp=36 / no-strict-cbr / qg-size=32 / no-rc-grain / qpmax=69 / qpmin=0 / no-const-vbv / sar=1 / overscan=0 / videoformat=5 / range=0 / colorprim=2 / transfer=2 / colormatrix=2 / chromaloc=0 / display-window=0 / cll=0,0 / min-luma=0 / max-luma=1023 / log2-max-poc-lsb=8 / vui-timing-info / vui-hrd-info / slices=1 / no-opt-qp-pps / no-opt-ref-list-length-pps / no-multi-pass-opt-rps / scenecut-bias=0.00 / hist-threshold=0.01 / no-opt-cu-delta-qp / no-aq-motion / no-hdr10 / no-hdr10-opt / no-dhdr10-opt / no-idr-recovery-sei / analysis-reuse-level=0 / analysis-save-reuse-level=0 / analysis-load-reuse-level=0 / scale-factor=0 / refine-intra=0 / refine-inter=0 / refine-mv=1 / refine-ctu-distortion=0 / no-limit-sao / ctu-info=0 / no-lowpass-dct / refine-analysis-type=0 / copy-pic=1 / max-ausize-factor=1.0 / no-dynamic-refine / no-single-sei / no-hevc-aq / no-svt / no-field / qp-adaptation-range=1.00 / no-scenecut-aware-qpconformance-window-offsets / right=0 / bottom=0
Язык : English
Default : Да
Forced : Нет
Аудио #1
Идентификатор : 2
Формат : AC-3
Формат/Информация : Audio Coding 3
Коммерческое название : Dolby Digital
Идентификатор кодека : A_AC3
Продолжительность : 2 ч. 16 м.
Вид битрейта : Постоянный
Битрейт : 640 Кбит/сек
Каналы : 6 каналов
Channel layout : L R C LFE Ls Rs
Частота : 48,0 КГц
Частота кадров : 31,250 кадров/сек (1536 SPF)
Битовая глубина : 16 бит
Метод сжатия : С потерями
Размер потока : 626 Мбайт (10%)
Заголовок : Dub
Язык : Russian
ServiceKind/ : Complete Main
Default : Да
Forced : Нет
Аудио #2
Идентификатор : 3
Формат : AC-3
Формат/Информация : Audio Coding 3
Коммерческое название : Dolby Digital
Идентификатор кодека : A_AC3
Продолжительность : 2 ч. 16 м.
Вид битрейта : Постоянный
Битрейт : 640 Кбит/сек
Каналы : 6 каналов
Channel layout : L R C LFE Ls Rs
Частота : 48,0 КГц
Частота кадров : 31,250 кадров/сек (1536 SPF)
Битовая глубина : 16 бит
Метод сжатия : С потерями
Размер потока : 626 Мбайт (10%)
Язык : English
ServiceKind/ : Complete Main
Default : Нет
Forced : Нет
Текст #1
Идентификатор : 4
Формат : UTF-8
Идентификатор кодека : S_TEXT/UTF8
Идентификатор кодека/Информация : UTF-8 Plain Text
Продолжительность : 1 ч. 57 м.
Битрейт : 0 бит/сек
ElementCount : 19
Размер потока : 771 байт (0%)
Заголовок : Forced [BD 4K EUR]
Язык : Russian
Default : Нет
Forced : Нет
Текст #2
Идентификатор : 5
Формат : UTF-8
Идентификатор кодека : S_TEXT/UTF8
Идентификатор кодека/Информация : UTF-8 Plain Text
Продолжительность : 2 ч. 2 м.
Битрейт : 1 бит/сек
ElementCount : 42
Размер потока : 1,36 Кбайт (0%)
Заголовок : Forced [iTunes]
Язык : Russian
Default : Нет
Forced : Нет
Текст #3
Идентификатор : 6
Формат : UTF-8
Идентификатор кодека : S_TEXT/UTF8
Идентификатор кодека/Информация : UTF-8 Plain Text
Продолжительность : 2 ч. 4 м.
Битрейт : 1 бит/сек
ElementCount : 47
Размер потока : 1,38 Кбайт (0%)
Заголовок : Forced
Язык : Russian
Default : Нет
Forced : Нет
Текст #4
Идентификатор : 7
Формат : UTF-8
Идентификатор кодека : S_TEXT/UTF8
Идентификатор кодека/Информация : UTF-8 Plain Text
Продолжительность : 2 ч. 4 м.
Битрейт : 86 бит/сек
ElementCount : 1767
Размер потока : 79,4 Кбайт (0%)
Заголовок : Full
Язык : Russian
Default : Нет
Forced : Нет
Текст #5
Идентификатор : 8
Формат : UTF-8
Идентификатор кодека : S_TEXT/UTF8
Идентификатор кодека/Информация : UTF-8 Plain Text
Продолжительность : 2 ч. 4 м.
Битрейт : 86 бит/сек
ElementCount : 1767
Размер потока : 79,4 Кбайт (0%)
Заголовок : BD 4K EUR
Язык : Russian
Default : Нет
Forced : Нет
Текст #6
Идентификатор : 9
Формат : UTF-8
Идентификатор кодека : S_TEXT/UTF8
Идентификатор кодека/Информация : UTF-8 Plain Text
Продолжительность : 2 ч. 1 м.
Битрейт : 61 бит/сек
ElementCount : 1947
Размер потока : 54,9 Кбайт (0%)
Заголовок : Full
Язык : English
Default : Нет
Forced : Нет
Текст #7
Идентификатор : 10
Формат : UTF-8
Идентификатор кодека : S_TEXT/UTF8
Идентификатор кодека/Информация : UTF-8 Plain Text
Продолжительность : 2 ч. 16 м.
Битрейт : 68 бит/сек
ElementCount : 1910
Размер потока : 68,3 Кбайт (0%)
Заголовок : Full
Язык : English
Default : Нет
Forced : Нет
Текст #8
Идентификатор : 11
Формат : UTF-8
Идентификатор кодека : S_TEXT/UTF8
Идентификатор кодека/Информация : UTF-8 Plain Text
Продолжительность : 2 ч. 16 м.
Битрейт : 74 бит/сек
ElementCount : 2194
Размер потока : 74,6 Кбайт (0%)
Заголовок : SDH
Язык : English
Default : Нет
Forced : Нет
Меню
00:00:00.000 : en:00:00:00.000
00:04:58.131 : en:00:04:58.131
00:13:43.489 : en:00:13:43.489
00:19:21.452 : en:00:19:21.452
00:26:45.979 : en:00:26:45.979
00:35:41.514 : en:00:35:41.514
00:40:13.244 : en:00:40:13.244
00:46:22.029 : en:00:46:22.029
00:51:34.216 : en:00:51:34.216
00:57:51.802 : en:00:57:51.802
01:01:53.251 : en:01:01:53.251
01:08:45.163 : en:01:08:45.163
01:14:22.833 : en:01:14:22.833
01:19:48.075 : en:01:19:48.075
01:24:59.261 : en:01:24:59.261
01:32:58.198 : en:01:32:58.198
01:38:48.923 : en:01:38:48.923
01:46:32.970 : en:01:46:32.970
01:53:29.594 : en:01:53:29.594
02:01:14.809 : en:02:01:14.809
Скриншоты
Показать сообщения:    

Текущее время: 07-Мар 14:12

Часовой пояс: UTC - 5



Вы не можете начинать темы
Вы не можете отвечать на сообщения
Вы не можете редактировать свои сообщения
Вы не можете удалять свои сообщения
Вы не можете голосовать в опросах
Вы не можете прикреплять файлы к сообщениям
Вы не можете скачивать файлы