Регистрация ·
Имя: Пароль:  
· Забыли пароль? · Вопросы от гостей
Чудо-женщина: 1984
Мосфильм-Мастер
WEB-DL 720p
Чудо-женщина: 1984
Мосфильм-Мастер
WEB-DL 1080p
Чудо-женщина: 1984
Мосфильм-Мастер
WEB-DL 2160p
Kliplar To'plami
O'zbek Tilida
Rizanova
12 Round
O'zbek Tilida
BluRay 1080p
Qo'riqchi ayol
O'zbek Tilida
BluRay 1080p
SHAFT
O'zbek Tilida
BDRip
SHAFT
O'zbek Tilida
WEBRip 1080p
Javohir politsiyachi
O'zbek Tilida
BDRip-AVC
So'nggi Ritsarlar
O'zbek Tilida
BluRay 1080p
Агент Ева
O'zbek Tilida
WEB-Rip
Анна
iTunes
BDRip 1080p
Анна
iTunes
BDRip-AVC
Анна
iTunes
BDRip
Mulan
O'zbek Tilida
WEBRip 1080p HEVC x265
Мулан
IdeaFilm
WEB-DL 720p
Мулан
IdeaFilm
WEB-DL 1080p
Мулан
IdeaFilm
WEB-DL 2160p
Temir Odam Uchligi
O'zbek Tilida
BluRay, 1080p, HEVC, x265, 10bit
Kliplar To'plami
O'zbek Tilida
Rizanova
Singularity
Repack
Mechanics
Tom Raider
Repack
Xatab
Far Cry New Dawn
Repack
Xatab
Far Cry 3
Repack
Xatab
Фитнес
Россия
WEB-DL 720p
Resident Evil
Гексалогия
Repack
Godzilla 2; Mahluqlar Qiroli
O'zbek Tilida
WEBRip HEVC 720p
Olimpning Qulashi
O'zbek Tilida
BDRip
X-Odamlar Qora Qaqnus
O'zbek Tilida
BDRip 1080p
Sevishganlar
O'zbek Tilida
HDRip
Maymunlar Sayyorasi Uchlik
O'zbek Tilida
BDRip
Koko Siri
O'zbek Tilida
BDRip-AVC
Спартак
РенТВ
BDRip 720p
Shelbilar oilasi
O'zbek Tilida
x265 1080p WEBRip 10bit
Однажды на востоке
Лицензия
BDRip 1080p
Yason va Argonaftlar
O'zbek Tilida
DVDRip x264
Shelbilar oilasi
O'zbek Tilida
BluRay 1080p x264
Qotillik Uchun Uch Kun
O'zbek Tilida
BluRay 1080p x264
Ko'd 211
O'zbek + Rus + Ing
BluRay 1080p
Интрижка
iTunes
WEB-DLRip
WarFace
Лицензия
Русский
Хоббит / Властелин колец
Коллекция
BDRip 1080p H264
SamDrivers
x32/x64
Repack
Чудесный доктор
WEB-DL 1080p
Турция
Острые козырьки
H265 1080p BluRay
Uzb+Ing
S.T.A.L.K.E.R
Анталогия
Repack
Зов джунглей
Рус
WEB-DL 1080p
Ajal Poygasi
Uzb Rus Ing
BrRip 1080p H264
Уважаемые гости сайта! Добро Пожаловать на наш торрент трекер,где Вы можете бесплатно скачать любой Софт,Фильмы,Музыку и многое другое! А так же постоянно ведется набор модераторов и релизеров. Зарегистрируйтесь сейчас, чтобы получить доступ ко всем функциям. После регистрации или входа на сайт вы сможете создавать темы, отвечать на сообщения и скачивать файлы.

Чудо-женщина: 1984 / Wonder Woman 1984 (Патти Дженкинс / Patty Jenkins) [2020, Фэнтези, боевик, приключения, WEB-DL 1080p] HEVC 10bit | IMAX Edition

Статистика раздачи
Скачал: [ 1 ]
 
     
 
 
Автор Сообщение

HellStaff ®

Не в сети

6388

Пол: Мужской

Стаж: 3 месяца 8 дней

Сообщений: 21

Карма: 50

[+]

Провайдер: UzOnline UzOnline

Наличие запрета:



Награды: Нет

[Профиль] ЛС

Создавать темы 16-Фев-2021 09:44

Цитировать

Чудо-женщина: 1984 / Wonder Woman 1984 -Год выпуска: 2020
Страна: США, Великобритания, Испания
Жанр: Фэнтези, боевик, приключения
Продолжительность: 02:31:05
Перевод: Дублированный | Мосфильм-Мастер-Субтитры: Русские, Английские, Испанский-Режиссер: Патти Дженкинс / Patty Jenkins-В ролях: Галь Гадот, Крис Пайн, Кристен Уиг, Педро Паскаль, Робин Райт, Конни Нильсен, Лилли Аспелл, Амр Вакед, Кристоффер Полаха, Наташа Ротуэлл-Описание: Влиятельный и успешный бизнесмен Лорд мечтает стать богом среди смертных. Для этого он не жалеет средств и собирает со всех уголков света разнообразные магические артефакты, пытаясь найти тот, который сможет подарить ему безграничную силу и могущество. В поисках ему помогает специалист по древней истории доктор Барбара Энн Минерва. Так в руки Минервы попадает некий артефакт, который превращает её в дикую, кровожадную и неуправляемую женщину-кошку — Гепарду. Вне себя от ярости она начинает охоту за Лордом, по чьей вине и превратилась в монстра.- -Качество: WEB-DL 1080p | HEVC 10bit
Формат: MKV
Видео: HEVC, 1804 Kb/s, 1920x1016
Аудио №1: AC3, 6 ch, 384 kb/s | RUS
Аудио №2: AAC, 6 ch, 206 kb/s | ENG-

MediaInfo

General
Unique ID : 305591010923307937561307686380783435395 (0xE5E6B01811E0D4C23EAB9DECC9967E83)
Complete name : Wonder.Woman.1984.2020.IMAX.10bit.WEB-DL.1080p.6CH.x265.HEVC.ELEKTRI4KA.UNIONGANG.mkv
Format : Matroska
Format version : Version 4
File size : 2.53 GiB
Duration : 2 h 31 min
Overall bit rate : 2 397 kb/s
Movie name : .ELEKTRI4KA.UNIONGANG
Encoded date : UTC 2021-02-16 13:37:05
Writing application : mkvmerge v45.0.0 ('Heaven in Pennies') 64-bit
Writing library : libebml v1.3.10 + libmatroska v1.5.2
Video
ID : 1
Format : HEVC
Format/Info : High Efficiency Video Coding
Format profile : Main 10@L4@Main
Codec ID : V_MPEGH/ISO/HEVC
Duration : 2 h 31 min
Bit rate : 1 804 kb/s
Width : 1 920 pixels
Height : 1 016 pixels
Display aspect ratio : 1.890
Frame rate mode : Constant
Frame rate : 23.976 (24000/1001) FPS
Color space : YUV
Chroma subsampling : 4:2:0
Bit depth : 10 bits
Bits/(Pixel*Frame) : 0.039
Stream size : 1.90 GiB (75%)
Title : ELEKTRI4KA.UNIONGANG
Language : Russian
Default : Yes
Forced : No
Color range : Limited
Color primaries : BT.709
Transfer characteristics : BT.709
Matrix coefficients : BT.709
Audio #1
ID : 2
Format : AC-3
Format/Info : Audio Coding 3
Commercial name : Dolby Digital
Codec ID : A_AC3
Duration : 2 h 31 min
Bit rate mode : Constant
Bit rate : 384 kb/s
Channel(s) : 6 channels
Channel layout : L R C LFE Ls Rs
Sampling rate : 48.0 kHz
Frame rate : 31.250 FPS (1536 SPF)
Compression mode : Lossy
Stream size : 415 MiB (16%)
Title : Dub ELEKTRI4KA.UNIONGANG
Language : Russian
Service kind : Complete Main
Default : Yes
Forced : Yes
Audio #2
ID : 3
Format : AAC LC SBR
Format/Info : Advanced Audio Codec Low Complexity with Spectral Band Replication
Commercial name : HE-AAC
Format settings : Explicit
Codec ID : A_AAC-2
Duration : 2 h 31 min
Bit rate : 206 kb/s
Channel(s) : 6 channels
Channel layout : C L R Ls Rs LFE
Sampling rate : 48.0 kHz
Frame rate : 23.438 FPS (2048 SPF)
Compression mode : Lossy
Delay relative to video : 23 ms
Stream size : 223 MiB (9%)
Title : ELEKTRI4KA.UNIONGANG
Language : English
Default : No
Forced : No
Text #1
ID : 4
Format : UTF-8
Codec ID : S_TEXT/UTF8
Codec ID/Info : UTF-8 Plain Text
Duration : 2 h 15 min
Bit rate : 1 b/s
Count of elements : 42
Stream size : 1.91 KiB (0%)
Title : Forced
Language : Russian
Default : No
Forced : No
Text #2
ID : 5
Format : UTF-8
Codec ID : S_TEXT/UTF8
Codec ID/Info : UTF-8 Plain Text
Duration : 2 h 26 min
Bit rate : 46 b/s
Count of elements : 1871
Stream size : 50.3 KiB (0%)
Language : English
Default : No
Forced : No
Text #3
ID : 6
Format : UTF-8
Codec ID : S_TEXT/UTF8
Codec ID/Info : UTF-8 Plain Text
Duration : 2 h 26 min
Bit rate : 51 b/s
Count of elements : 3167
Stream size : 55.1 KiB (0%)
Title : SDH
Language : English
Default : No
Forced : No
Text #4
ID : 7
Format : UTF-8
Codec ID : S_TEXT/UTF8
Codec ID/Info : UTF-8 Plain Text
Duration : 2 h 27 min
Bit rate : 48 b/s
Count of elements : 2023
Stream size : 52.6 KiB (0%)
Language : Spanish
Default : No
Forced : No

HellStaff ®

Не в сети

6388

Пол: Мужской

Стаж: 3 месяца 8 дней

Сообщений: 21

Карма: 50

[+]

Провайдер: UzOnline UzOnline

Наличие запрета:



Награды: Нет

[Профиль] ЛС

Создавать темы 16-Фев-2021 13:37 (спустя 3 часа)

Цитировать

А в чем проблема с релизами???
Показать сообщения:    

Текущее время: 25-Фев 19:05

Часовой пояс: UTC - 5



Вы не можете начинать темы
Вы не можете отвечать на сообщения
Вы не можете редактировать свои сообщения
Вы не можете удалять свои сообщения
Вы не можете голосовать в опросах
Вы не можете прикреплять файлы к сообщениям
Вы не можете скачивать файлы