Регистрация ·
Имя: Пароль:  
· Забыли пароль? · Вопросы от гостей
Охотник на монстров
HDRezka Studio
BDRip 720p
Охотник на монстров
HDRezka Studio
BDRip 1080p
Чудо-женщина: 1984
Мосфильм-Мастер
WEB-DL 720p
Чудо-женщина: 1984
Мосфильм-Мастер
WEB-DL 1080p
Чудо-женщина: 1984
Мосфильм-Мастер
WEB-DL 2160p
Kliplar To'plami
O'zbek Tilida
Rizanova
12 Round
O'zbek Tilida
BluRay 1080p
Qo'riqchi ayol
O'zbek Tilida
BluRay 1080p
SHAFT
O'zbek Tilida
BDRip
SHAFT
O'zbek Tilida
WEBRip 1080p
Javohir politsiyachi
O'zbek Tilida
BDRip-AVC
So'nggi Ritsarlar
O'zbek Tilida
BluRay 1080p
Агент Ева
O'zbek Tilida
WEB-Rip
Анна
iTunes
BDRip 1080p
Анна
iTunes
BDRip-AVC
Анна
iTunes
BDRip
Mulan
O'zbek Tilida
WEBRip 1080p HEVC x265
Мулан
IdeaFilm
WEB-DL 720p
Мулан
IdeaFilm
WEB-DL 1080p
Мулан
IdeaFilm
WEB-DL 2160p
Temir Odam Uchligi
O'zbek Tilida
BluRay, 1080p, HEVC, x265, 10bit
Kliplar To'plami
O'zbek Tilida
Rizanova
Singularity
Repack
Mechanics
Tom Raider
Repack
Xatab
Far Cry New Dawn
Repack
Xatab
Far Cry 3
Repack
Xatab
Фитнес
Россия
WEB-DL 720p
Resident Evil
Гексалогия
Repack
Godzilla 2; Mahluqlar Qiroli
O'zbek Tilida
WEBRip HEVC 720p
Olimpning Qulashi
O'zbek Tilida
BDRip
X-Odamlar Qora Qaqnus
O'zbek Tilida
BDRip 1080p
Sevishganlar
O'zbek Tilida
HDRip
Maymunlar Sayyorasi Uchlik
O'zbek Tilida
BDRip
Koko Siri
O'zbek Tilida
BDRip-AVC
Спартак
РенТВ
BDRip 720p
Shelbilar oilasi
O'zbek Tilida
x265 1080p WEBRip 10bit
Однажды на востоке
Лицензия
BDRip 1080p
Yason va Argonaftlar
O'zbek Tilida
DVDRip x264
Shelbilar oilasi
O'zbek Tilida
BluRay 1080p x264
Qotillik Uchun Uch Kun
O'zbek Tilida
BluRay 1080p x264
Ko'd 211
O'zbek + Rus + Ing
BluRay 1080p
Интрижка
iTunes
WEB-DLRip
WarFace
Лицензия
Русский
Уважаемые гости сайта! Добро Пожаловать на наш торрент трекер,где Вы можете бесплатно скачать любой Софт,Фильмы,Музыку и многое другое! А так же постоянно ведется набор модераторов и релизеров. Зарегистрируйтесь сейчас, чтобы получить доступ ко всем функциям. После регистрации или входа на сайт вы сможете создавать темы, отвечать на сообщения и скачивать файлы.

Охотник на монстров / Monster Hunter (Пол У. С. Андерсон / Paul W.S. Anderson) [2020, Фэнтези, боевик, приключения, WEB-DL 720p HEVC] Line

Статистика раздачи
Нет
 
     
 
 
Автор Сообщение

HellStaff ®

Не в сети

6388

Пол: Мужской

Стаж: 3 месяца 16 дней

Сообщений: 29

Карма: 50

[+]

Провайдер: UzOnline UzOnline

Наличие запрета:



Награды: Нет

[Профиль] ЛС

Создавать темы 20-Фев-2021 05:57

Цитировать

Охотник на монстров / Monster Hunter -Год выпуска: 2020
Страна: США, Китай, Германия, Япония
Жанр: Фэнтези, боевик, приключения
Продолжительность: 01:43:06
Перевод: Дублированный | Line-Субтитры: Английские-Режиссер: Пол У. С. Андерсон / Paul W.S. Anderson-В ролях: Милла Йовович, Тони Джа, Джош Хелман, Ти-Ай, Джин О-Юн, Миган Гуд, Николас Расенти, Рон Перлман, Диего Бонета, Хирона Ямадзаки-Описание: Параллельно нашему миру существует иной: мир, где правят крайне опасные и наделенные невероятной силой монстры, яростно оберегающие свои владения от чужаков. Именно сюда через пространственный портал попадают лейтенант Артемис и ее отряд элитных бойцов. И теперь им предстоит проверить себя на прочность перед лицом невиданной ранее угрозы. В попытке выжить и найти дорогу домой, Артемис объединяет силы с таинственным Охотником, который научился выживать в этих враждебных землях. Вместе героям предстоит вступить в беспощадную схватку с монстрами, не знающими страха и жалости.- -Качество: WEB-DL 720p | HEVC 10bit
Формат: MKV
Видео: HEVC, 1030 Kb/s, 1280x536
Аудио №1: AC3, 2 ch, 192 kb/s | RUS
Аудио №2: AAC, 6 ch, 202 kb/s | ENG-

MediaInfo

General
Unique ID : 336551070920225408479785216725252810006 (0xFD3160E759018346413C3144507FA516)
Complete name : Monster.Hunter.2020.10bit.WEB-DL.720p.6CH.x265.HEVC.ELEKTRI4KA.UNIONGANG.mkv
Format : Matroska
Format version : Version 4
File size : 1.03 GiB
Duration : 1 h 43 min
Overall bit rate : 1 426 kb/s
Movie name : .ELEKTRI4KA.UNIONGANG
Encoded date : UTC 2021-02-20 08:32:27
Writing application : mkvmerge v45.0.0 ('Heaven in Pennies') 64-bit
Writing library : libebml v1.3.10 + libmatroska v1.5.2
Video
ID : 1
Format : HEVC
Format/Info : High Efficiency Video Coding
Format profile : Main 10@L3.1@Main
Codec ID : V_MPEGH/ISO/HEVC
Duration : 1 h 43 min
Bit rate : 1 030 kb/s
Width : 1 280 pixels
Height : 536 pixels
Display aspect ratio : 2.40:1
Frame rate mode : Constant
Frame rate : 23.976 (24000/1001) FPS
Color space : YUV
Chroma subsampling : 4:2:0
Bit depth : 10 bits
Bits/(Pixel*Frame) : 0.063
Stream size : 759 MiB (72%)
Title : ELEKTRI4KA.UNIONGANG
Language : English
Default : Yes
Forced : No
Audio #1
ID : 2
Format : AC-3
Format/Info : Audio Coding 3
Commercial name : Dolby Digital
Codec ID : A_AC3
Duration : 1 h 43 min
Bit rate mode : Constant
Bit rate : 192 kb/s
Channel(s) : 2 channels
Channel layout : L R
Sampling rate : 48.0 kHz
Frame rate : 31.250 FPS (1536 SPF)
Compression mode : Lossy
Stream size : 142 MiB (13%)
Title : Dub ELEKTRI4KA.UNIONGANG
Language : Russian
Service kind : Complete Main
Default : Yes
Forced : Yes
Audio #2
ID : 3
Format : AAC LC SBR
Format/Info : Advanced Audio Codec Low Complexity with Spectral Band Replication
Commercial name : HE-AAC
Format settings : Explicit
Codec ID : A_AAC-2
Duration : 1 h 43 min
Bit rate : 202 kb/s
Channel(s) : 6 channels
Channel layout : C L R Ls Rs LFE
Sampling rate : 48.0 kHz
Frame rate : 23.438 FPS (2048 SPF)
Compression mode : Lossy
Delay relative to video : 23 ms
Stream size : 149 MiB (14%)
Title : ELEKTRI4KA.UNIONGANG
Language : English
Default : No
Forced : No
Text #1
ID : 4
Format : UTF-8
Codec ID : S_TEXT/UTF8
Codec ID/Info : UTF-8 Plain Text
Duration : 1 h 29 min
Bit rate : 17 b/s
Count of elements : 478
Stream size : 11.4 KiB (0%)
Title : English
Language : English
Default : No
Forced : No
Text #2
ID : 5
Format : UTF-8
Codec ID : S_TEXT/UTF8
Codec ID/Info : UTF-8 Plain Text
Duration : 19 min 37 s
Bit rate : 0 b/s
Count of elements : 4
Stream size : 93.0 Bytes (0%)
Title : English (Forced)
Language : English
Default : No
Forced : No
Text #3
ID : 6
Format : UTF-8
Codec ID : S_TEXT/UTF8
Codec ID/Info : UTF-8 Plain Text
Duration : 1 h 35 min
Bit rate : 26 b/s
Count of elements : 818
Stream size : 18.3 KiB (0%)
Title : English (SDH)
Language : English
Default : No
Forced : No
Menu #1
00:00:00.000 : :1
00:05:57.400 : :2
00:09:53.200 : :3
00:15:00.200 : :4
00:21:10.400 : :5
00:24:50.200 : :6
00:31:43.200 : :7
00:41:00.200 : :8
00:49:05.200 : :9
00:56:04.200 : :10
01:02:48.400 : :11
01:08:55.200 : :12
01:14:08.200 : :13
01:21:13.200 : :14
01:26:32.200 : :15
01:31:15.200 : :16
Menu #2
00:00:00.000 : :1
00:05:57.000 : :2
00:09:53.000 : :3
00:15:00.000 : :4
00:21:10.000 : :5
00:24:50.000 : :6
00:31:43.000 : :7
00:41:00.000 : :8
00:49:05.000 : :9
00:56:04.000 : :10
01:02:48.000 : :11
01:08:55.000 : :12
01:14:08.000 : :13
01:21:13.000 : :14
01:26:32.000 : :15
01:31:15.000 : :16
Показать сообщения:    

Текущее время: 04-Мар 06:15

Часовой пояс: UTC - 5



Вы не можете начинать темы
Вы не можете отвечать на сообщения
Вы не можете редактировать свои сообщения
Вы не можете удалять свои сообщения
Вы не можете голосовать в опросах
Вы не можете прикреплять файлы к сообщениям
Вы не можете скачивать файлы