Регистрация ·
Имя: Пароль:  
· Забыли пароль? · Вопросы от гостей
Уважаемые гости сайта! Добро Пожаловать на наш торрент трекер,где Вы можете бесплатно скачать любой Софт,Фильмы,Музыку и многое другое! А так же постоянно ведется набор модераторов и релизеров. Зарегистрируйтесь сейчас, чтобы получить доступ ко всем функциям. После регистрации или входа на сайт вы сможете создавать темы, отвечать на сообщения и скачивать файлы.

The Message (1976) [1080p] [BluRay]

Статистика раздачи
Нет
Сегодня идет свободное скачивание без начисления Download
 
     
 
 
Автор Сообщение

Admin ®

Не в сети

2

VIP пользователь

Пол: Мужской

Стаж: 6 лет 2 месяца

Сообщений: 176

Карма: 787

[+]

Провайдер: UzOnline UzOnline

Тарифный план: UNLIME 20 Mbit/sekund

Наличие запрета:



Награды: 2 (Подробнее)

Admin (Количество: 1) Авторитет (Количество: 1)
[Профиль] ЛС

Создавать темы 20-Фев-2021 12:34

Цитировать

The Message / Послание
Жанр приключенческий фильм драма, биография
Режиссёр Мустафа Аккад
Продюсер Мустафа Аккад
Автор сценария Х.Э.Л. Крэйг, Тавфик Эль-Хаким, Джавдат Эль-Саххар, Рахман Эль-Шаркави,
Мухаммад Али Махер
В главных ролях Энтони Куинн, Ирен Папас, Майкл Ансара, Джонни Секка, Майкл Форест, Дэмиен Томас.
Оператор Саид Бакр, Джек Хилдьярд, Ибрахим Салем
Композитор Морис Жарр
Кинокомпания Filmco International Productions Incorporated
Дистрибьютор Netflix
Длительность 178 мин.
Бюджет 10 млн. $
Сборы 15 млн. $
Страна Ливан
Ливия Федерация Арабских Республик
Кувейт
Марокко
Великобритания
Язык арабский и английский
Год 1976
IMDb ID 0074896
Video: MPEG4 Video (H264) 1920x1072 23.976fps 2250kbps [V: h264 high L4.1, yuv420p, 1920x1072, 2250 kb/s]
Audio: AAC 48000Hz 6ch 384kbps [A: SoundHandler (aac lc, 48000 Hz, 5.1, 384 kb/s)]
«Послание» (араб. الرسالة‎, англ. The Message) — исламский эпический драматический фильм 1976 года, снятый сирийским режиссёром Мустафой Аккадом, рассказывающий о жизни и временах пророка Мухаммеда с точки зрения его дяди Хамзы ибн Абд аль-Мутталиба и приемного сына Зайда ибн Харисы.
Снят в двух версиях — арабской и английской, которые отличаются некоторыми актёрами. Соответственно, выпущен на арабском языке, и на английском языке.
Фильм служит введением в раннюю исламскую историю. Слоган: «The Story of Islam» — история ислама. Картина показывает жизнь и времена пророка Мухаммеда, который, в соответствии с исламским запретом на его изображение, в фильме не показан.
Дирижёр и композитор Морис Жарр был номинирован на премию «Оскар» за музыку, написанную к фильму.
Сюжет
В фильме показан период, когда Мухаммед стал пророком Аллаха. Жизнь Пророка показана с первых лет в Мекке, в которой мусульмане преследовались, затем показано массовое переселение в Медину и торжественное возвращение мусульман в Мекку. В фильме отражены многие переломные события, такие, как битва при Бадре и битва при Ухуде. Большинство историй рассказывают свидетели: дядя Мухаммеда Хамза ибн Абд аль-Мутталиб, владыка Мекки Абу Суфьян и его жена Хинд бинт Утба (которые были ярыми врагами ислама, но позже сами стали мусульманами).

Информация по видеофайлу

Format : MPEG-4
Format profile : Base Media
Codec ID : isom (isom/iso2/avc1/mp41)
File size : 3.29 GiB
Duration : 2 h 58 min
Overall bit rate : 2 641 kb/s
Video
ID : 1
Format : AVC
Format/Info : Advanced Video Codec
Format profile : High@L4.1
Format settings : CABAC / 4 Ref Frames
Format settings, CABAC : Yes
Format settings, Reference fra : 4 frames
Codec ID : avc1
Codec ID/Info : Advanced Video Coding
Duration : 2 h 58 min
Bit rate : 2 250 kb/s
Width : 1 920 pixels
Height : 1 072 pixels
Display aspect ratio : 16:9
Frame rate mode : Constant
Frame rate : 23.976 (23976/1000) FPS
Color space : YUV
Chroma subsampling : 4:2:0
Bit depth : 8 bits
Scan type : Progressive
Bits/(Pixel*Frame) : 0.046
Stream size : 2.80 GiB (85%)
Writing library : x264 core 159
Encoding settings : cabac=1 / ref=4 / deblock=1:-1:-1 / analyse=0x3:0x133 / me=umh / subme=9 / psy=1 / psy_rd=1.00:0.15 / mixed_ref=1 / me_range=24 / chroma_me=1 / trellis=2 / 8x8dct=1 / cqm=0 / deadzone=21,11 / fast_pskip=0 / chroma_qp_offset=-3 / threads=18 / lookahead_threads=1 / sliced_threads=0 / nr=0 / decimate=1 / interlaced=0 / bluray_compat=0 / constrained_intra=0 / bframes=3 / b_pyramid=2 / b_adapt=2 / b_bias=0 / direct=3 / weightb=1 / open_gop=0 / weightp=2 / keyint=250 / keyint_min=23 / scenecut=40 / intra_refresh=0 / rc_lookahead=60 / rc=2pass / mbtree=1 / bitrate=2250 / ratetol=1.0 / qcomp=0.60 / qpmin=0 / qpmax=69 / qpstep=4 / cplxblur=20.0 / qblur=0.5 / vbv_maxrate=31250 / vbv_bufsize=31250 / nal_hrd=none / filler=0 / ip_ratio=1.40 / aq=1:1.00
Codec configuration box : avcC
Audio
ID : 2
Format : AAC LC
Format/Info : Advanced Audio Codec Low Complexity
Codec ID : mp4a-40-2
Duration : 2 h 58 min
Bit rate mode : Constant
Bit rate : 384 kb/s
Channel(s) : 6 channels
Channel layout : C L R Ls Rs LFE
Sampling rate : 48.0 kHz
Frame rate : 46.875 FPS (1024 SPF)
Compression mode : Lossy
Stream size : 489 MiB (15%)
Default : Yes
Alternate group : 1

Музыкальная композиция

Музыку исполняет «Королевский филармонический оркестр» — Морис Жарр
The Message (03:09) — Послание
Hegira (04:39) — Хиджра
Building the First Mosque (02:33) — Построение первой мечети
The Sura (03:32) — Сура
Presence of Mohammad (02:11) — Наличие Мухаммеда
Entry to Mecca (03:14) — Вступление в Мекку
The Declaration (02:39) — Декларация
The First Martyrs (02:26) — Первые мученики
Fight (04:11) — Сражение
The Spread of Islam (03:35) — Распространение ислама
Broken Idols (03:40) — Разбитые идолы
The Faith of Islam (02:33) — Вера ислама
Скриншоты
Показать сообщения:    

Текущее время: 10-Авг 15:43

Часовой пояс: UTC - 5



Вы не можете начинать темы
Вы не можете отвечать на сообщения
Вы не можете редактировать свои сообщения
Вы не можете удалять свои сообщения
Вы не можете голосовать в опросах
Вы не можете прикреплять файлы к сообщениям
Вы не можете скачивать файлы