Регистрация ·
Имя: Пароль:  
· Забыли пароль? · Вопросы от гостей
Javohir politsiyachi
O'zbek Tilida
BDRip-AVC
Агент Ева
O'zbek Tilida
WEB-Rip
Анна
iTunes
BDRip 1080p
Анна
iTunes
BDRip-AVC
Анна
iTunes
BDRip
Mulan
O'zbek Tilida
WEBRip 1080p HEVC x265
Мулан
IdeaFilm
WEB-DL 720p
Мулан
IdeaFilm
WEB-DL 1080p
Мулан
IdeaFilm
WEB-DL 2160p
Temir Odam Uchligi
O'zbek Tilida
BluRay, 1080p, HEVC, x265, 10bit
Kliplar To'plami
O'zbek Tilida
Rizanova
Singularity
Repack
Mechanics
Tom Raider
Repack
Xatab
Far Cry New Dawn
Repack
Xatab
Far Cry 3
Repack
Xatab
Фитнес
Россия
WEB-DL 720p
Resident Evil
Гексалогия
Repack
Godzilla 2; Mahluqlar Qiroli
O'zbek Tilida
WEBRip HEVC 720p
Olimpning Qulashi
O'zbek Tilida
BDRip
X-Odamlar Qora Qaqnus
O'zbek Tilida
BDRip 1080p
Sevishganlar
O'zbek Tilida
HDRip
Maymunlar Sayyorasi Uchlik
O'zbek Tilida
BDRip
Koko Siri
O'zbek Tilida
BDRip-AVC
Спартак
РенТВ
BDRip 720p
Shelbilar oilasi
O'zbek Tilida
x265 1080p WEBRip 10bit
Однажды на востоке
Лицензия
BDRip 1080p
Yason va Argonaftlar
O'zbek Tilida
DVDRip x264
Shelbilar oilasi
O'zbek Tilida
BluRay 1080p x264
Qotillik Uchun Uch Kun
O'zbek Tilida
BluRay 1080p x264
Ko'd 211
O'zbek + Rus + Ing
BluRay 1080p
Интрижка
iTunes
WEB-DLRip
WarFace
Лицензия
Русский
Хоббит / Властелин колец
Коллекция
BDRip 1080p H264
SamDrivers
x32/x64
Repack
Чудесный доктор
WEB-DL 1080p
Турция
Острые козырьки
H265 1080p BluRay
Uzb+Ing
S.T.A.L.K.E.R
Анталогия
Repack
Зов джунглей
Рус
WEB-DL 1080p
Ajal Poygasi
Uzb Rus Ing
BrRip 1080p H264
Yengilmas Gvardiya
O'zbek Tilida
WEB-DL 1080p H264
Suv va Olov
O'zbek Tilida
BDRip H264
S.T.A.L.K.E.R.
Анталогия Модов
GSC Game World
GTA 5
RePack
Лицензия
Tunnel: Hayot uchun xavfli
Uzb Tilida
WEB-DL 1080p
Уважаемые гости сайта! Добро Пожаловать на наш торрент трекер,где Вы можете бесплатно скачать любой Софт,Фильмы,Музыку и многое другое! А так же постоянно ведется набор модераторов и релизеров. Зарегистрируйтесь сейчас, чтобы получить доступ ко всем функциям. После регистрации или входа на сайт вы сможете создавать темы, отвечать на сообщения и скачивать файлы.

Godzilla 2; Mahluqlar Qiroli / Годзилла 2: Король Mонстров / Godzilla: King of the Monsters (Maykl Dogerti) [2019, Fantastik, Hayoliy, Jangari, Sarguzasht., WEBRip HEVC 720p] O'zbek Tilida.

Статистика раздачи
Скачал: [ 5 ]
 
     
 
 
Автор Сообщение

N.U.R.I.K.B.E.K ®

Не в сети

5417

Пол: Мужской

Стаж: 1 год 2 месяца

Сообщений: 36

Откуда: Jizzax.Paxtakor

Карма: 110

[+]

Провайдер: UzOnline UzOnline

Наличие запрета:



Награды: Нет

[Профиль] ЛС

Создавать темы 14-Авг-2019 16:51

Цитировать


--Godzilla 2; Mahluqlar Qiroli | Годзилла 2: Король Mонстров | Godzilla: King of the Monsters-- Chiqqan yili: 2019
Davlat: AQSH, Xitoy
Janr: Fantastik, Hayoliy, Jangari, Sarguzasht.
Davomiyligi: 02:11:39
Tarjima: MY5 O'zbek Tilida.--Rejissyor: Maykl Dogerti.--Rollarda: Kayl Chandler, Vera Farmiga, Millie Bobby Brown, Ken Vatanabe, Chjan Zisi, Bradley Whitford, Sally Hawkins, Charlz Raqs, Tomas Middleditch, Oysha Xaynds.--Tavsif: Bu hikoya "monarx" kriptozoologik agentligining yirik hayvonlarni qamrab olish bo'yicha qahramonlik harakati haqida hikoya qiladi. Bu safar kuchli Godzillaga qarshi Motra, Rodan va ultimatum kaizyu - uch boshli hayvon King Gidora. Vaqt o'tishi bilan yarim unutilgan afsonalarga aylangan bu qadimgi superkompyuterlar yana jangga qo'shilish uchun isyon ko'targanda, insoniyat bir chetga surib, o'lishga harakat qilmoqda.--Videoning sifati: WEBRip HEVC 720p
Video format: MKV--Video: HVC1 1280x536 23.976fps 882 kb/s
Audio: MP3 48000Hz stereo 128kbps O'zbek Tili
--

Media Info

General
Format : Matroska
Format version : Version 4 / Version 2
File size : 953 MiB
Duration : 2 h 11 min
Overall bit rate : 1 012 kb/s
Movie name : PSArips.com | Godzilla.King.of.the.Monsters.2019.720p.WEB-DL.2CH.x265.HEVC-PSA
Encoded date : UTC 2019-08-14 20:52:55
Writing application : mkvmerge v15.0.0 ('Duel with the Devil') 64-bit
Writing library : libebml v1.3.5 + libmatroska v1.4.5
Video
ID : 1
Format : HEVC
Format/Info : High Efficiency Video Coding
Format profile : Main@L3.1@Main
Codec ID : V_MPEGH/ISO/HEVC
Duration : 2 h 11 min
Bit rate : 882 kb/s
Width : 1 280 pixels
Height : 536 pixels
Display aspect ratio : 2.40:1
Frame rate mode : Constant
Frame rate : 23.976 (24000/1001) FPS
Color space : YUV
Chroma subsampling : 4:2:0
Bit depth : 8 bits
Bits/(Pixel*Frame) : 0.054
Stream size : 831 MiB (87%)
Default : Yes
Forced : No
Audio
ID : 2
Format : MPEG Audio
Format version : Version 1
Format profile : Layer 3
Mode : Joint stereo
Mode extension : MS Stereo
Codec ID : A_MPEG/L3
Codec ID/Hint : MP3
Duration : 2 h 11 min
Bit rate mode : Constant
Bit rate : 128 kb/s
Channel(s) : 2 channels
Sampling rate : 48.0 kHz
Frame rate : 41.667 FPS (1152 SPF)
Compression mode : Lossy
Stream size : 121 MiB (13%)
Title : O'zbek Tili
Writing library : LAME3.99.5
Language : Uzbek
Default : Yes
Forced : No
LAVHALAR


Последний раз редактировалось: N.U.R.I.K.B.E.K (2020-08-21 09:22), всего редактировалось 1 раз

normaluser

Не в сети

5470

Пол: Мужской

Стаж: 1 год

Сообщений: 1

Откуда: Uzbekistan Airways

Карма: 0

[+]

Провайдер: UzOnline UzOnline

Telegram: fastfood_king

Наличие запрета:



Награды: Нет

[Профиль] ЛС

Создавать темы 18-Сен-2019 21:06 (спустя 1 месяц 4 дня)

Цитировать

Orisvoylar uchun , hdr 1080p 60fps topiladimi?

_________________
@fastfood_king телеграмм
Показать сообщения:    

Текущее время: 19-Сен 09:45

Часовой пояс: UTC - 5



Вы не можете начинать темы
Вы не можете отвечать на сообщения
Вы не можете редактировать свои сообщения
Вы не можете удалять свои сообщения
Вы не можете голосовать в опросах
Вы не можете прикреплять файлы к сообщениям
Вы не можете скачивать файлы