Регистрация ·
Имя: Пароль:  
· Забыли пароль? · Вопросы от гостей
Уважаемые гости сайта! Добро Пожаловать на наш торрент трекер,где Вы можете бесплатно скачать любой Софт,Фильмы,Музыку и многое другое! А так же постоянно ведется набор модераторов и релизеров. Зарегистрируйтесь сейчас, чтобы получить доступ ко всем функциям. После регистрации или входа на сайт вы сможете создавать темы, отвечать на сообщения и скачивать файлы.

Локи / Loki / Сезон: 1 / Серии: 1-6 из 6 (Кейт Херрон) [2021, Фантастика, фэнтези, боевик, приключения, WEB-DL 1080p] MVO [AlexFilm]

Статистика раздачи
Скачал: [ 1 ]
Сегодня идет свободное скачивание без начисления Download
 
     
 
 
Автор Сообщение

BestFriend ®

Не в сети

6493

Пол: Мужской

Стаж: 1 год 1 месяц

Сообщений: 36

Карма: 25

[+]

Провайдер: UzOnline UzOnline

Наличие запрета:



Награды: Нет

[Профиль] ЛС

Создавать темы 22-Июл-2021 23:52

Цитировать

Loki | Локи | Loki
Год выпуска: 2021
Страна: США
Выпущено: Disney+
Жанр: Фантастика, фэнтези, боевик, приключения
Продолжительность: ~ 00:50:00
Перевод: Профессиональный (многоголосый) | AlexFilm
Субтитры: Русские (Forced, Full |«PhysKids»|, английские (SDH)
Режиссер: Кейт Херрон

В ролях: Том Хиддлстон, Софи Ди Мартино, Ричард Э. Грант, Гугу Мбата-Роу, Вунми Моссаку, Оуэн Уилсон, Эрика Коулмэн, Саша Лэйн, Джон Ливайн, Люсиус Бастон мл. и др.
Описание: В центре сюжета находится Бог хитрости и обмана Локи, которому во время возникшей суматохи удается завладеть Тессерактом и сбежать. Не успев как следует насладиться свободой, он оказывается схвачен неизвестными солдатами, которые конвоируют его в странное и совершенно незнакомое место. Вскоре выясняется, что он попал в Управление Временными Аномалиями, где ему предстоит предстать перед судом за нарушение Священного Таймлайна. А после того, как его приговаривают к "перезапуску", Локи неожиданно находит спасение в лице агента Мёбиуса, который предлагает ему свою помощь в обмен на сотрудничество.
Качество: WEB-DL 1080p
Формат: MKV
Видео: 1920x1080 (16:9), 24 fps, ~ 5700 Kbps
Аудио №1: Uzbek Professional Dublyaj Uzmovi
Аудио №2: Russian AC3, 48,0 kHz, 6 ch, 384 kbps | AlexFilm
Аудио №3: English AC3, 48,0 kHz, 6 ch, 640 kbps | Original
Аудио №4: English EAC3+Atmos, 48,0 kHz, 6 ch, 768 kbps | Original

Скриншоты

Информация по видеофайлу

General
Unique ID : 195768058229817775650964189537174265667 (0x93478E7A0E797557A1265A8F5EB39F43)
Complete name LOKI_2021\Loki.S01.WEBRip.1080\Loki.2021.S01E01.Glorious.Purpose.REPACK.1080p.DSNP.WEB-DL.DDP5.1.x264-TOMMY_EniaHD (UZB_RUS_ENG).mkv
Format : Matroska
Format version : Version 4
File size : 2.77 GiB
Duration : 51 min 30 s
Overall bit rate mode : Variable
Overall bit rate : 7 700 kb/s
Encoded date : UTC 2021-07-01 12:27:37
Writing application : mkvmerge v9.9.0 ('Pick Up') 32bit
Writing library : libebml v1.3.4 + libmatroska v1.4.5
Video
ID : 1
Format : AVC
Format/Info : Advanced Video Codec
Format profile : High@L4
Format settings : CABAC / 4 Ref Frames
Format settings, CABAC : Yes
Format settings, Reference frames : 4 frames
Codec ID : V_MPEG4/ISO/AVC
Duration : 51 min 30 s
Bit rate mode : Variable
Bit rate : 5 716 kb/s
Maximum bit rate : 12.7 Mb/s
Width : 1 920 pixels
Height : 1 080 pixels
Display aspect ratio : 16:9
Frame rate mode : Constant
Frame rate : 24.000 FPS
Color space : YUV
Chroma subsampling : 4:2:0
Bit depth : 8 bits
Scan type : Progressive
Bits/(Pixel*Frame) : 0.115
Stream size : 2.06 GiB (74%)
Title : Release by EniaHD
Default : Yes
Forced : No
Color range : Limited
Color primaries : BT.709
Transfer characteristics : BT.709
Matrix coefficients : BT.709
Audio #1
ID : 2
Format : AAC LC
Format/Info : Advanced Audio Codec Low Complexity
Codec ID : A_AAC-2
Duration : 51 min 30 s
Bit rate : 192 kb/s
Channel(s) : 2 channels
Channel layout : L R
Sampling rate : 44.1 kHz
Frame rate : 43.066 FPS (1024 SPF)
Compression mode : Lossy
Stream size : 69.8 MiB (2%)
Title : 901574707
Language : Uzbek
Default : No
Forced : No
Audio #2
ID : 3
Format : AC-3
Format/Info : Audio Coding 3
Commercial name : Dolby Digital
Codec ID : A_AC3
Duration : 51 min 30 s
Bit rate mode : Constant
Bit rate : 384 kb/s
Channel(s) : 6 channels
Channel layout : L R C LFE Ls Rs
Sampling rate : 48.0 kHz
Frame rate : 31.250 FPS (1536 SPF)
Compression mode : Lossy
Stream size : 141 MiB (5%)
Title : AlexFilm
Language : Russian
Service kind : Complete Main
Default : Yes
Forced : No
Audio #3
ID : 4
Format : AC-3
Format/Info : Audio Coding 3
Commercial name : Dolby Digital
Codec ID : A_AC3
Duration : 51 min 30 s
Bit rate mode : Constant
Bit rate : 640 kb/s
Channel(s) : 6 channels
Channel layout : L R C LFE Ls Rs
Sampling rate : 48.0 kHz
Frame rate : 31.250 FPS (1536 SPF)
Compression mode : Lossy
Stream size : 236 MiB (8%)
Language : English
Service kind : Complete Main
Default : No
Forced : No
Audio #4
ID : 5
Format : E-AC-3 JOC
Format/Info : Enhanced AC-3 with Joint Object Coding
Commercial name : Dolby Digital Plus with Dolby Atmos
Format settings : Dolby Surround EX
Codec ID : A_EAC3
Duration : 51 min 30 s
Bit rate mode : Constant
Bit rate : 768 kb/s
Channel(s) : 6 channels
Channel layout : L R C LFE Ls Rs
Sampling rate : 48.0 kHz
Frame rate : 31.250 FPS (1536 SPF)
Compression mode : Lossy
Stream size : 283 MiB (10%)
Language : English
Service kind : Complete Main
Default : No
Forced : No
Complexity index : 16
Number of dynamic objects : 15
Bed channel count : 1 channel
Bed channel configuration : LFE
Text #1
ID : 6
Format : UTF-8
Codec ID : S_TEXT/UTF8
Codec ID/Info : UTF-8 Plain Text
Duration : 40 min 48 s
Bit rate : 0 b/s
Count of elements : 6
Stream size : 186 Bytes (0%)
Title : Forced
Language : Russian
Default : Yes
Forced : No
Text #2
ID : 7
Format : UTF-8
Codec ID : S_TEXT/UTF8
Codec ID/Info : UTF-8 Plain Text
Duration : 50 min 12 s
Bit rate : 82 b/s
Count of elements : 585
Stream size : 30.5 KiB (0%)
Title : Full |PhysKids|
Language : Russian
Default : No
Forced : No
Text #3
ID : 8
Format : UTF-8
Codec ID : S_TEXT/UTF8
Codec ID/Info : UTF-8 Plain Text
Duration : 50 min 5 s
Bit rate : 55 b/s
Count of elements : 688
Stream size : 20.4 KiB (0%)
Title : SDH
Language : English
Default : No
Forced : No

Ahmadullo2019

Не в сети

5505

Пол: Мужской

Стаж: 2 года 9 месяцев

Сообщений: 18

Карма: 10

[+]

Провайдер: UzOnline UzOnline

Наличие запрета:



Награды: Нет

[Профиль] ЛС

Создавать темы 29-Июл-2021 05:08 (спустя 6 дней)

Цитировать

razdacha bumayaptiku quyilgandan beri,uchirvorilsa bo'leraveradi shekilli))))

Ahmadullo2019

Не в сети

5505

Пол: Мужской

Стаж: 2 года 9 месяцев

Сообщений: 18

Карма: 10

[+]

Провайдер: UzOnline UzOnline

Наличие запрета:



Награды: Нет

[Профиль] ЛС

Создавать темы 29-Июл-2021 05:08 (спустя 7 секунд)

Цитировать

razdacha bumayaptiku quyilgandan beri,uchirvorilsa bo'leraveradi shekilli))))

BestFriend ®

Не в сети

6493

Пол: Мужской

Стаж: 1 год 1 месяц

Сообщений: 36

Карма: 25

[+]

Провайдер: UzOnline UzOnline

Наличие запрета:



Награды: Нет

[Профиль] ЛС

Создавать темы 01-Авг-2021 00:46 (спустя 2 дня 19 часов)

Цитировать

sabr qilamiz aka menda ADSL
Показать сообщения:    

Текущее время: 15-Авг 14:12

Часовой пояс: UTC - 5



Вы не можете начинать темы
Вы не можете отвечать на сообщения
Вы не можете редактировать свои сообщения
Вы не можете удалять свои сообщения
Вы не можете голосовать в опросах
Вы не можете прикреплять файлы к сообщениям
Вы не можете скачивать файлы