Регистрация ·
Имя: Пароль:  
· Забыли пароль? · Вопросы от гостей
Уважаемые гости сайта! Добро Пожаловать на наш торрент трекер,где Вы можете бесплатно скачать любой Софт,Фильмы,Музыку и многое другое! А так же постоянно ведется набор модераторов и релизеров. Зарегистрируйтесь сейчас, чтобы получить доступ ко всем функциям. После регистрации или входа на сайт вы сможете создавать темы, отвечать на сообщения и скачивать файлы.

Прячься / The Boy Behind the Door (Давид Шарбонье, Джастин Пауэлл / David Charbonier, Justin Powell) [2020, Ужасы, WEB-DL 1080p] | iTunes

Статистика раздачи
Нет
Сегодня идет свободное скачивание без начисления Download
 
     
 
 
Автор Сообщение

Rollex ®

Не в сети

6489

VIP пользователь

Пол: Мужской

Стаж: 3 года 1 месяц

Сообщений: 30

Карма: 1000

[+]

Провайдер: Gals-Telecom Gals-Telecom

Тарифный план: Скорость все по 100

Наличие запрета:



Награды: 5 (Подробнее)

Admin (Количество: 1) VIP 1 (Количество: 1) Лайк 200 (Количество: 1)
[Профиль] ЛС

Создавать темы 30-Июл-2021 10:38

Цитировать

Прячься| The Boy Behind the Door-- Год выпуска: 2020
Страна: США
Жанр: Ужасы
Продолжительность: 01:28:07
Cубтитры: английские
Перевод: Дублированный | iTunes-Режиссер: Давид Шарбонье, Джастин Пауэлл / David Charbonier, Justin Powell-В ролях: Лонни Чевис, Эзра Дьюи, Кристин Бауэр, Скотт Майкл Фостер, Мика Хауптман, Рич Кероло, Анна Шаффер, Альфредо Таварес-Описание: Когда мальчика Бобби и его лучшего друга Кевина похищают и отвозят в изолированный загородный дом, у Бобби получается сбежать. Но чтобы спасти друга, он решает вернуться назад. Теперь Бобби придется узнать тайны этого места и посмотреть своим страхам в глаза. Каждый шорох может стоить жизни. Каждый угол таит новую опасность. Каждый шаг может стать последним.-Качество видео: WEB-DL 1080p
Формат видео: MKV-Видео: MPEG-4 AVC, 1920x816, 6698 Kbit/s, 24.000 fps
Аудио #01: 48 kHz, AC3, 5.1, 384 Kbps | русский | iTunes|
Аудио #02: 48 kHz, AC3, 2.0, 224 Kbps | английские | оригинал-

MediaInfo

General
Unique ID : 189612827817308549289042559544899247829 (0x8EA61A2FE5490D212ACD948F7C899ED5)
Complete name : D:\Зарубежное кино\The.Boy.Behind.the.Door.2020.WEB-DL.1080p.seleZen.mkv
Format : Matroska
Format version : Version 4
File size : 4.50 GiB
Duration : 1 h 28 min
Overall bit rate : 7 308 kb/s
Movie name : The Boy Behind the Door 2020 from seleZen
Encoded date : UTC 2021-07-30 13:28:46
Writing application : mkvmerge v59.0.0 ('Shining Star') 64-bit
Writing library : libebml v1.4.2 + libmatroska v1.6.4
Video
ID : 1
Format : AVC
Format/Info : Advanced Video Codec
Format profile : High@L4
Format settings : CABAC / 4 Ref Frames
Format settings, CABAC : Yes
Format settings, Reference fra : 4 frames
Codec ID : V_MPEG4/ISO/AVC
Duration : 1 h 28 min
Bit rate mode : Constant
Bit rate : 6 698 kb/s
Nominal bit rate : 10 000 kb/s
Width : 1 920 pixels
Height : 816 pixels
Display aspect ratio : 2.35:1
Frame rate mode : Constant
Frame rate : 24.000 FPS
Color space : YUV
Chroma subsampling : 4:2:0
Bit depth : 8 bits
Scan type : Progressive
Bits/(Pixel*Frame) : 0.178
Stream size : 4.12 GiB (92%)
Language : English
Default : Yes
Forced : No
Color range : Limited
Color primaries : BT.709
Transfer characteristics : BT.709
Matrix coefficients : BT.709
Audio #1
ID : 2
Format : AC-3
Format/Info : Audio Coding 3
Commercial name : Dolby Digital
Codec ID : A_AC3
Duration : 1 h 28 min
Bit rate mode : Constant
Bit rate : 384 kb/s
Channel(s) : 6 channels
Channel layout : L R C LFE Ls Rs
Sampling rate : 48.0 kHz
Frame rate : 31.250 FPS (1536 SPF)
Compression mode : Lossy
Stream size : 242 MiB (5%)
Title : iTunes
Language : Russian
Service kind : Complete Main
Default : Yes
Forced : Yes
Audio #2
ID : 3
Format : E-AC-3
Format/Info : Enhanced AC-3
Commercial name : Dolby Digital Plus
Codec ID : A_EAC3
Duration : 1 h 28 min
Bit rate mode : Constant
Bit rate : 224 kb/s
Channel(s) : 2 channels
Channel layout : L R
Sampling rate : 48.0 kHz
Frame rate : 31.250 FPS (1536 SPF)
Compression mode : Lossy
Stream size : 141 MiB (3%)
Title : Original
Language : English
Service kind : Complete Main
Default : No
Forced : No
Text #1
ID : 4
Format : UTF-8
Codec ID : S_TEXT/UTF8
Codec ID/Info : UTF-8 Plain Text
Duration : 1 h 19 min
Bit rate : 19 b/s
Count of elements : 514
Stream size : 11.2 KiB (0%)
Title : Full
Language : English
Default : No
Forced : No
Text #2
ID : 5
Format : UTF-8
Codec ID : S_TEXT/UTF8
Codec ID/Info : UTF-8 Plain Text
Duration : 1 h 27 min
Bit rate : 30 b/s
Count of elements : 1290
Stream size : 19.5 KiB (0%)
Title : English [CC]
Language : English
Default : No
Forced : No



_________________
Показать сообщения:    

Текущее время: 10-Авг 16:17

Часовой пояс: UTC - 5



Вы не можете начинать темы
Вы не можете отвечать на сообщения
Вы не можете редактировать свои сообщения
Вы не можете удалять свои сообщения
Вы не можете голосовать в опросах
Вы не можете прикреплять файлы к сообщениям
Вы не можете скачивать файлы