Регистрация ·
Имя: Пароль:  
· Забыли пароль? · Вопросы от гостей
Круиз по джунглям
Pazl Voice
WEB-DLRip-AVC
Папа Закодировался
Не требуется
WEB-DLRip
Маша
Не требуется
WEBRip
Прячься
iTunes
WEB-DL 1080p
The Ascent
RePack
Action, RPG
Форсаж 9
Чистый звук
WEB-DL 720p
Форсаж 9
Чистый звук
WEB-DLRip
Форсаж 9
Pazl Voice
WEB-DL 1080p
Папа за маму
iTunes
WEB-DLRip
Windows 7/10
Microsoft
7.7.2021
Убойные каникулы
Кураж-Бамбей
BDRip 720p
Уважаемые гости сайта! Добро Пожаловать на наш торрент трекер,где Вы можете бесплатно скачать любой Софт,Фильмы,Музыку и многое другое! А так же постоянно ведется набор модераторов и релизеров. Зарегистрируйтесь сейчас, чтобы получить доступ ко всем функциям. После регистрации или входа на сайт вы сможете создавать темы, отвечать на сообщения и скачивать файлы.

До нового года осталось

Forsaj 9 / Форсаж 9 / F9 (Джастин Лин) [2021, боевик, триллер, криминал, приключения, WEB-DL 1080p] [DVO] (Pazl Voice)

Статистика раздачи
Качаю: [ 1 ]
Сегодня идет свободное скачивание без начисления Download
 
     
 
 
Автор Сообщение

BestFriend ®

Не в сети

6493

Пол: Мужской

Стаж: 5 месяцев 12 дней

Сообщений: 5

Карма: 20

[+]

Провайдер: UzOnline UzOnline

Наличие запрета:



Награды: Нет

[Профиль] ЛС

Создавать темы 31-Июл-2021 08:11

Цитировать

Forsaj 9 / Форсаж 9 Год выпуска: 2021
Страна: США
Жанр: боевик, триллер, криминал, приключения
Продолжительность: 02:22:51
Перевод: / Любительский (двухголосый, закадровый) | Pazl Voice (Присутствует реклама)
Субтитры: Russian, English-Режиссер: Джастин Лин-В ролях: Вин Дизель, Джон Сина, Тайриз Гибсон, Лудакрис, Джордана Брюстер, Натали Эммануэль, Мишель Родригес, Хелен Миррен, Шарлиз Терон, Майкл Рукер-Описание: Доминик Торетто ведет спокойную жизнь вместе с Летти и своим сыном Брайаном, однако, они знают, что новая опасность всегда где-то рядом. В этот раз Доминику придется встретиться с призраками прошлого, если он хочет спасти самых близких. Команда снова собирается вместе, чтобы предотвратить дерзкий план по захвату мира, который придумал самый опасный преступник и безбашенный водитель из всех, с кем они сталкивались ранее. Ситуация усложняется тем, что этот человек — брат Доминика Джейкоб, которого много лет назад изгнали из семьи.
-Качество: WEB-DL 1080p
Формат: MKV
Видео: h.264 10000 Кбит/с, 1920x800
Аудио uzb: MY5.TV dublyaj
Аудио uzb: Milliy.TV dublyaj
Аудио rus: AC3, 48.0 kHz, 6 ch, 640 kb/s
Аудио eng: AC3, 48.0 kHz, 6 ch, 640 kb/s
-

Скриншоты

-

Информация по видеофайлу

General
Unique ID : 241500582862250210781951481725841113929 (0xB5AF520687A558CC9CE1A346DC5D0349)
Complete name :Форсаж.9.the.Fast.Saga.2021.1080p (UZB_RUS_ENG).mkv
Format : Matroska
Format version : Version 4
File size : 11.9 GiB
Duration : 2 h 22 min
Overall bit rate : 11.9 Mb/s
Movie name : F9 (2021) - Release for TeamHD
Encoded date : UTC 2021-07-31 12:40:10
Writing application : mkvmerge v9.9.0 ('Pick Up') 32bit
Writing library : libebml v1.3.4 + libmatroska v1.4.5 / Lavf57.71.100
Cover : Yes
Attachments : cover.jpg
ENCODING_INFO : MATROSKA,WEBM > MKV / H264 > COPY Безопасное / EAC3 > AC3 CBR 640kbps / EAC3 > COPY Безопасное
Language : und
Video
ID : 1
Format : AVC
Format/Info : Advanced Video Codec
Format profile : High@L4
Format settings : CABAC / 4 Ref Frames
Format settings, CABAC : Yes
Format settings, Reference frames : 4 frames
Codec ID : V_MPEG4/ISO/AVC
Duration : 2 h 22 min
Bit rate : 10.2 Mb/s
Width : 1 920 pixels
Height : 800 pixels
Display aspect ratio : 2.40:1
Frame rate mode : Constant
Frame rate : 23.976 (24000/1001) FPS
Color space : YUV
Chroma subsampling : 4:2:0
Bit depth : 8 bits
Scan type : Progressive
Bits/(Pixel*Frame) : 0.278
Stream size : 10.2 GiB (86%)
Default : Yes
Forced : No
Color range : Limited
Color primaries : BT.709
Transfer characteristics : BT.709
Matrix coefficients : BT.709
Audio #1
ID : 2
Format : AAC LC
Format/Info : Advanced Audio Codec Low Complexity
Codec ID : A_AAC-2
Duration : 2 h 22 min
Bit rate : 196 kb/s
Channel(s) : 2 channels
Channel layout : L R
Sampling rate : 44.1 kHz
Frame rate : 43.066 FPS (1024 SPF)
Compression mode : Lossy
Stream size : 200 MiB (2%)
Title : 901574707_MY5.TV
Language : Uzbek
Default : Yes
Forced : No
Audio #2
ID : 3
Format : AAC LC
Format/Info : Advanced Audio Codec Low Complexity
Codec ID : A_AAC-2
Duration : 2 h 22 min
Bit rate : 192 kb/s
Channel(s) : 2 channels
Channel layout : L R
Sampling rate : 44.1 kHz
Frame rate : 43.066 FPS (1024 SPF)
Compression mode : Lossy
Stream size : 200 MiB (2%)
Title : 901574707_Milliy.TV
Language : Uzbek
Default : No
Forced : No
Audio #3
ID : 4
Format : AC-3
Format/Info : Audio Coding 3
Commercial name : Dolby Digital
Codec ID : A_AC3
Duration : 2 h 22 min
Bit rate mode : Constant
Bit rate : 640 kb/s
Channel(s) : 6 channels
Channel layout : L R C LFE Ls Rs
Sampling rate : 48.0 kHz
Frame rate : 31.250 FPS (1536 SPF)
Compression mode : Lossy
Stream size : 654 MiB (5%)
Title : DVO, PazlVoice
Language : Russian
Service kind : Complete Main
Default : No
Forced : No
Audio #4
ID : 5
Format : E-AC-3
Format/Info : Enhanced AC-3
Commercial name : Dolby Digital Plus
Codec ID : A_EAC3
Duration : 2 h 22 min
Bit rate mode : Constant
Bit rate : 640 kb/s
Channel(s) : 6 channels
Channel layout : L R C LFE Ls Rs
Sampling rate : 48.0 kHz
Frame rate : 31.250 FPS (1536 SPF)
Compression mode : Lossy
Stream size : 654 MiB (5%)
Title : English
Language : English
Service kind : Complete Main
Default : No
Forced : No
Text #1
ID : 6
Format : UTF-8
Codec ID : S_TEXT/UTF8
Codec ID/Info : UTF-8 Plain Text
Duration : 1 h 29 min
Bit rate : 0 b/s
Count of elements : 8
Stream size : 190 Bytes (0%)
Title : Forced
Language : Russian
Default : Yes
Forced : No
Text #2
ID : 7
Format : UTF-8
Codec ID : S_TEXT/UTF8
Codec ID/Info : UTF-8 Plain Text
Duration : 2 h 12 min
Bit rate : 55 b/s
Count of elements : 1426
Stream size : 53.4 KiB (0%)
Title : Full
Language : Russian
Default : No
Forced : No
Text #3
ID : 8
Format : UTF-8
Codec ID : S_TEXT/UTF8
Codec ID/Info : UTF-8 Plain Text
Duration : 2 h 22 min
Bit rate : 54 b/s
Count of elements : 2113
Stream size : 57.4 KiB (0%)
Title : English [SDH]
Language : English
Default : No
Forced : No


Последний раз редактировалось: BestFriend (2021-07-31 08:33), всего редактировалось 1 раз

Rollex

Не в сети

6489

VIP пользователь

Пол: Мужской

Стаж: 2 года 5 месяцев

Сообщений: 31

Карма: 1000

[+]

Провайдер: Gals-Telecom Gals-Telecom

Тарифный план: Скорость все по 100

Наличие запрета:



Награды: 5 (Подробнее)

Admin (Количество: 1) VIP 1 (Количество: 1) Лайк 200 (Количество: 1)
[Профиль] ЛС

Создавать темы 31-Июл-2021 08:21 (спустя 10 минут)

Цитировать

сразу залей еще чистый звук вышел пока там не залили

_________________

Rollex

Не в сети

6489

VIP пользователь

Пол: Мужской

Стаж: 2 года 5 месяцев

Сообщений: 31

Карма: 1000

[+]

Провайдер: Gals-Telecom Gals-Telecom

Тарифный план: Скорость все по 100

Наличие запрета:



Награды: 5 (Подробнее)

Admin (Количество: 1) VIP 1 (Количество: 1) Лайк 200 (Количество: 1)
[Профиль] ЛС

Создавать темы 31-Июл-2021 17:03 (спустя 8 часов)

Цитировать

сан кара перевод хархил

_________________
Показать сообщения:    

Текущее время: 08-Дек 05:25

Часовой пояс: UTC - 5



Вы не можете начинать темы
Вы не можете отвечать на сообщения
Вы не можете редактировать свои сообщения
Вы не можете удалять свои сообщения
Вы не можете голосовать в опросах
Вы не можете прикреплять файлы к сообщениям
Вы не можете скачивать файлы