Регистрация ·
Имя: Пароль:  
· Забыли пароль? · Вопросы от гостей
Уважаемые гости сайта! Добро Пожаловать на наш торрент трекер,где Вы можете бесплатно скачать любой Софт,Фильмы,Музыку и многое другое! А так же постоянно ведется набор модераторов и релизеров. Зарегистрируйтесь сейчас, чтобы получить доступ ко всем функциям. После регистрации или входа на сайт вы сможете создавать темы, отвечать на сообщения и скачивать файлы.

Беги, прячься, бей / Run Hide Fight (Кайл Ранкин) [2020, Боевик, триллер, BDRip 1080p] | iTunes

Статистика раздачи
Нет
Сегодня идет свободное скачивание без начисления Download
 
     
 
 
Автор Сообщение

Rollex ®

Не в сети

6489

VIP пользователь

Пол: Мужской

Стаж: 3 года 1 месяц

Сообщений: 30

Карма: 1000

[+]

Провайдер: Gals-Telecom Gals-Telecom

Тарифный план: Скорость все по 100

Наличие запрета:



Награды: 5 (Подробнее)

Admin (Количество: 1) VIP 1 (Количество: 1) Лайк 200 (Количество: 1)
[Профиль] ЛС

Создавать темы 31-Июл-2021 14:55

Цитировать

Беги, прячься, бей | Run Hide Fight -- Год выпуска: 2020
Страна: США
Жанр: Боевик, триллер
Продолжительность: 01:49:27-Cубтитры: Русские (Full), английские, французские
Перевод: Дублированный | iTunes-Режиссер: Кайл Ранкин-В ролях: Изабель Мэй, Томас Джейн, Рада Митчелл, Эли Браун, Олли Шолотан, Трит Уильямс, Барбара Крэмптон, Сайрус Арнольд, Бриттон Сир, Кэтрин Дэвис-Описание: Четверо вооруженных подростков захватывают школу, беспощадно убивая учителей и учеников. В это время в школе была и старшеклассница Зои. Весь этот кошмар происходит у нее на глазах, но девушке удалось спрятаться. Когда она уже хотела убежать, она вдруг поняла, что может применить навыки, которым научил ее отец во время охоты. Зои дает достойный отпор террористам...-Качество видео: BDRip 1080p
Формат видео: MKV-Видео: MPEG-4 AVC, 1920x800, 8418 Kbit/s, 23.976 fps
Аудио #01: 48 kHz, AC3, 5.1, 384 Kbps | iTunes | RUS
Аудио #02: 48 kHz, AC3, 5.1, 640 Kbps | Оригинал | ENG

MediaInfo

General
Unique ID : 165840851604272821825702582504827584456 (0x7CC3C9451B5227B6DF42939B6A0AFFC8)
Complete name : K:\Фильмы зарубежные\Run.Hide.Fight.2020.BDRip.1080p.seleZen.mkv
Format : Matroska
Format version : Version 4
File size : 7.22 GiB
Duration : 1 h 49 min
Overall bit rate : 9 445 kb/s
Movie name : Run Hide Fight 2020 from seleZen
Encoded date : UTC 2021-07-31 15:02:48
Writing application : mkvmerge v59.0.0 ('Shining Star') 64-bit
Writing library : libebml v1.4.2 + libmatroska v1.6.4
Video
ID : 1
Format : AVC
Format/Info : Advanced Video Codec
Format profile : High@L4.1
Format settings : CABAC / 5 Ref Frames
Format settings, CABAC : Yes
Format settings, Reference fra : 5 frames
Codec ID : V_MPEG4/ISO/AVC
Duration : 1 h 49 min
Bit rate : 8 418 kb/s
Width : 1 920 pixels
Height : 800 pixels
Display aspect ratio : 2.40:1
Frame rate mode : Constant
Frame rate : 23.976 (24000/1001) FPS
Color space : YUV
Chroma subsampling : 4:2:0
Bit depth : 8 bits
Scan type : Progressive
Bits/(Pixel*Frame) : 0.229
Stream size : 6.29 GiB (87%)
Title : UTT
Writing library : x264 core 152 r2851 ba24899
Encoding settings : cabac=1 / ref=5 / deblock=1:-3:-3 / analyse=0x3:0x113 / me=umh / subme=10 / psy=1 / psy_rd=1.00:0.00 / mixed_ref=1 / me_range=24 / chroma_me=1 / trellis=2 / 8x8dct=1 / cqm=0 / deadzone=21,11 / fast_pskip=1 / chroma_qp_offset=-2 / threads=24 / lookahead_threads=4 / sliced_threads=0 / nr=0 / decimate=1 / interlaced=0 / bluray_compat=0 / constrained_intra=0 / bframes=8 / b_pyramid=2 / b_adapt=2 / b_bias=0 / direct=3 / weightb=1 / open_gop=0 / weightp=2 / keyint=230 / keyint_min=23 / scenecut=40 / intra_refresh=0 / rc_lookahead=60 / rc=2pass / mbtree=1 / bitrate=8418 / ratetol=1.0 / qcomp=0.60 / qpmin=0 / qpmax=69 / qpstep=4 / cplxblur=20.0 / qblur=0.5 / vbv_maxrate=62500 / vbv_bufsize=78125 / nal_hrd=none / filler=0 / ip_ratio=1.40 / aq=1:1.00
Language : English
Default : Yes
Forced : No
Audio #1
ID : 2
Format : AC-3
Format/Info : Audio Coding 3
Commercial name : Dolby Digital
Codec ID : A_AC3
Duration : 1 h 49 min
Bit rate mode : Constant
Bit rate : 384 kb/s
Channel(s) : 6 channels
Channel layout : L R C LFE Ls Rs
Sampling rate : 48.0 kHz
Frame rate : 31.250 FPS (1536 SPF)
Compression mode : Lossy
Stream size : 301 MiB (4%)
Title : iTunes
Language : Russian
Service kind : Complete Main
Default : Yes
Forced : Yes
Audio #2
ID : 3
Format : AC-3
Format/Info : Audio Coding 3
Commercial name : Dolby Digital
Codec ID : A_AC3
Duration : 1 h 49 min
Bit rate mode : Constant
Bit rate : 640 kb/s
Channel(s) : 6 channels
Channel layout : L R C LFE Ls Rs
Sampling rate : 48.0 kHz
Frame rate : 31.250 FPS (1536 SPF)
Compression mode : Lossy
Stream size : 501 MiB (7%)
Title : Original
Language : English
Service kind : Complete Main
Default : No
Forced : No
Text #1
ID : 4
Format : UTF-8
Codec ID : S_TEXT/UTF8
Codec ID/Info : UTF-8 Plain Text
Title : Full [FOCS]
Language : Russian
Default : No
Forced : No
Text #2
ID : 5
Format : UTF-8
Codec ID : S_TEXT/UTF8
Codec ID/Info : UTF-8 Plain Text
Title : SDH
Language : English
Default : No
Forced : No
Text #3
ID : 6
Format : UTF-8
Codec ID : S_TEXT/UTF8
Codec ID/Info : UTF-8 Plain Text
Title : Full
Language : French
Default : No
Forced : No
Menu
00:00:00.000 : 00:00:00.000
00:16:51.636 : 00:16:51.636
00:36:58.049 : 00:36:58.049
00:54:51.788 : 00:54:51.788
01:14:09.695 : 01:14:09.695
01:31:16.262 : 01:31:16.262

_________________
Показать сообщения:    

Текущее время: 10-Авг 15:10

Часовой пояс: UTC - 5



Вы не можете начинать темы
Вы не можете отвечать на сообщения
Вы не можете редактировать свои сообщения
Вы не можете удалять свои сообщения
Вы не можете голосовать в опросах
Вы не можете прикреплять файлы к сообщениям
Вы не можете скачивать файлы