Регистрация ·
Имя: Пароль:  
· Забыли пароль? · Вопросы от гостей
Круиз по джунглям
Pazl Voice
WEB-DLRip-AVC
Папа Закодировался
Не требуется
WEB-DLRip
Маша
Не требуется
WEBRip
Прячься
iTunes
WEB-DL 1080p
The Ascent
RePack
Action, RPG
Форсаж 9
Чистый звук
WEB-DL 720p
Форсаж 9
Чистый звук
WEB-DLRip
Форсаж 9
Pazl Voice
WEB-DL 1080p
Папа за маму
iTunes
WEB-DLRip
Windows 7/10
Microsoft
7.7.2021
Убойные каникулы
Кураж-Бамбей
BDRip 720p
Уважаемые гости сайта! Добро Пожаловать на наш торрент трекер,где Вы можете бесплатно скачать любой Софт,Фильмы,Музыку и многое другое! А так же постоянно ведется набор модераторов и релизеров. Зарегистрируйтесь сейчас, чтобы получить доступ ко всем функциям. После регистрации или входа на сайт вы сможете создавать темы, отвечать на сообщения и скачивать файлы.

До нового года осталось

Побег из Претории / Escape from Pretoria (Фрэнсис Аннан) [2021, Триллер, реальные события, BDRip-AVC] | iTunes

Статистика раздачи
Скачал: [ 1 ]
Сегодня идет свободное скачивание без начисления Download
 
     
 
 
Автор Сообщение

Rollex ®

Не в сети

6489

VIP пользователь

Пол: Мужской

Стаж: 2 года 5 месяцев

Сообщений: 31

Карма: 1000

[+]

Провайдер: Gals-Telecom Gals-Telecom

Тарифный план: Скорость все по 100

Наличие запрета:



Награды: 5 (Подробнее)

Admin (Количество: 1) VIP 1 (Количество: 1) Лайк 200 (Количество: 1)
[Профиль] ЛС

Создавать темы 31-Июл-2021 17:40

Цитировать

Побег из Претории | Escape from Pretoria-- Год выпуска: 2021
Страна: Великобритания, Австралия
Жанр: Триллер, реальные события
Продолжительность: 01:45:56
Субтитры: Русские (Forced, 2xfull (Наталья Раевская (Enigma), iTunes), английские
Перевод: Дублированный | iTunes-Режиссер: Фрэнсис Аннан-В ролях: Дэниэл Рэдклифф, Иэн Харт, Даниэль Уэббер, Нэйтан Пейдж, Стивен Хантер, Марк Леонард Винтер, Ратидзо Мамбо, Жанетт Кронин, Дэвид Уилсон, Адам Овадия-Описание: Двое борцов за свободу отбывают срок в одной из самых строгих тюрем мира - в «Претории». Вместе с другими узниками они планируют дерзкий и опасный побег. Но придумать план - это только первый шаг. Шаг второй - реализация плана.-Качество видео: BDRip-AVC
Формат видео: MKV-Видео: MPEG-4 AVC, 720x302 (2.40:1), 23.976 fps, 1512 Kbps, 0.290 bit/pixel
Аудио: 48 kHz, AC3, 5.1, 384 Kbps | RUS

MediaInfo

General
Unique ID : 236154414081736967455045443493753615637 (0xB1A9AF8DD4D0877FBA7B78641FA57515)
Complete name : K:\Фильмы зарубежные\PobegsPritorii.2020.BDRip.AVC.ExKinoRay.mkv
Format : Matroska
Format version : Version 2
File size : 1.40 GiB
Duration : 1 h 45 min
Overall bit rate : 1 896 kb/s
Movie name : Escape from Pretoria 2020 from ExKinoRay
Encoded date : UTC 2021-07-31 19:34:32
Writing application : mkvmerge v5.6.0 ('Kenya Kane') built on May 27 2012 16:44:04
Writing library : libebml v1.2.3 + libmatroska v1.3.0
Video
ID : 1
Format : AVC
Format/Info : Advanced Video Codec
Format profile : High@L4.1
Format settings : CABAC / 11 Ref Frames
Format settings, CABAC : Yes
Format settings, Reference fra : 11 frames
Codec ID : V_MPEG4/ISO/AVC
Duration : 1 h 45 min
Bit rate : 1 512 kb/s
Width : 720 pixels
Height : 302 pixels
Display aspect ratio : 2.40:1
Frame rate mode : Constant
Frame rate : 23.976 (23976/1000) FPS
Color space : YUV
Chroma subsampling : 4:2:0
Bit depth : 8 bits
Scan type : Progressive
Bits/(Pixel*Frame) : 0.290
Stream size : 1.09 GiB (78%)
Title : Enigma
Writing library : x264 core 152 r2851 ba24899
Encoding settings : cabac=1 / ref=11 / deblock=1:-2:-2 / analyse=0x3:0x113 / me=umh / subme=10 / psy=1 / psy_rd=1.02:0.05 / mixed_ref=1 / me_range=32 / chroma_me=1 / trellis=2 / 8x8dct=1 / cqm=0 / deadzone=21,11 / fast_pskip=0 / chroma_qp_offset=-3 / threads=9 / lookahead_threads=1 / sliced_threads=0 / nr=0 / decimate=0 / interlaced=0 / bluray_compat=0 / constrained_intra=0 / bframes=9 / b_pyramid=2 / b_adapt=2 / b_bias=0 / direct=3 / weightb=1 / open_gop=0 / weightp=2 / keyint=240 / keyint_min=23 / scenecut=40 / intra_refresh=0 / rc=2pass / mbtree=0 / bitrate=1512 / ratetol=1.0 / qcomp=0.60 / qpmin=0 / qpmax=51 / qpstep=4 / cplxblur=20.0 / qblur=0.5 / ip_ratio=1.30 / pb_ratio=1.20 / aq=1:1.00
Default : Yes
Forced : No
Color range : Limited
Color primaries : BT.709
Transfer characteristics : BT.709
Matrix coefficients : BT.709
Audio
ID : 2
Format : AC-3
Format/Info : Audio Coding 3
Commercial name : Dolby Digital
Codec ID : A_AC3
Duration : 1 h 45 min
Bit rate mode : Constant
Bit rate : 384 kb/s
Channel(s) : 6 channels
Channel layout : L R C LFE Ls Rs
Sampling rate : 48.0 kHz
Frame rate : 31.250 FPS (1536 SPF)
Compression mode : Lossy
Stream size : 291 MiB (20%)
Title : Dub (iTunes)
Language : Russian
Service kind : Complete Main
Default : Yes
Forced : No
Text #1
ID : 3
Format : UTF-8
Codec ID : S_TEXT/UTF8
Codec ID/Info : UTF-8 Plain Text
Title : Forced
Language : Russian
Default : Yes
Forced : No
Text #2
ID : 4
Format : UTF-8
Codec ID : S_TEXT/UTF8
Codec ID/Info : UTF-8 Plain Text
Title : Full (Enigma)
Language : Russian
Default : No
Forced : No
Text #3
ID : 5
Format : UTF-8
Codec ID : S_TEXT/UTF8
Codec ID/Info : UTF-8 Plain Text
Title : Full (iTunes)
Language : Russian
Default : No
Forced : No
Text #4
ID : 6
Format : UTF-8
Codec ID : S_TEXT/UTF8
Codec ID/Info : UTF-8 Plain Text
Title : Full
Language : English
Default : No
Forced : No
Menu
00:00:00.000 : :Chapter 01
00:06:12.581 : :Chapter 02
00:14:09.807 : :Chapter 03
00:20:45.244 : :Chapter 04
00:26:29.588 : :Chapter 05
00:32:03.130 : :Chapter 06
00:38:09.954 : :Chapter 07
00:46:35.835 : :Chapter 08
00:52:06.749 : :Chapter 09
00:58:39.015 : :Chapter 10
01:06:19.976 : :Chapter 11
01:13:22.064 : :Chapter 12
01:20:52.264 : :Chapter 13
01:27:16.481 : :Chapter 14
01:33:55.421 : :Chapter 15
01:40:58.469 : :Chapter 16
-

_________________
Показать сообщения:    

Текущее время: 05-Дек 18:19

Часовой пояс: UTC - 5



Вы не можете начинать темы
Вы не можете отвечать на сообщения
Вы не можете редактировать свои сообщения
Вы не можете удалять свои сообщения
Вы не можете голосовать в опросах
Вы не можете прикреплять файлы к сообщениям
Вы не можете скачивать файлы