Регистрация ·
Имя: Пароль:  
· Забыли пароль? · Вопросы от гостей
Уважаемые гости сайта! Добро Пожаловать на наш торрент трекер,где Вы можете бесплатно скачать любой Софт,Фильмы,Музыку и многое другое! А так же постоянно ведется набор модераторов и релизеров. Зарегистрируйтесь сейчас, чтобы получить доступ ко всем функциям. После регистрации или входа на сайт вы сможете создавать темы, отвечать на сообщения и скачивать файлы.

Убойные каникулы / Tucker & Dale vs Evil (Эли Крэйг) [2010, Ужасы, комедия, BDRip 720p] | iTunes

Статистика раздачи
Нет
Сегодня идет свободное скачивание без начисления Download
 
     
 
 
Автор Сообщение

Rollex ®

Не в сети

6489

VIP пользователь

Пол: Мужской

Стаж: 3 года 1 месяц

Сообщений: 30

Карма: 1000

[+]

Провайдер: Gals-Telecom Gals-Telecom

Тарифный план: Скорость все по 100

Наличие запрета:



Награды: 5 (Подробнее)

Admin (Количество: 1) VIP 1 (Количество: 1) Лайк 200 (Количество: 1)
[Профиль] ЛС

Создавать темы 31-Июл-2021 18:51

Цитировать

Убойные каникулы | Tucker & Dale vs Evil-- Год выпуска: 2010
Страна: США, Канада
Жанр: Ужасы, комедия
Продолжительность: 01:28:34
Перевод: Профессиональный одноголосый | Кураж-Бамбей-Режиссер: Эли Крэйг-В ролях: Тайлер Лэбин, Алан Тьюдик, Катрина Боуден, Джесси Мосс, Филип Грэйнджер, Брэндон Джей МакЛарен, Кристи Лэйн, Челан Симмонс, Трэвис Нельсон, Алекс Арсено, Адам Бошен, Джозеф Аллан Сазерленд, Ти Эванс, Билл Бакса, Шон Тисдэйл, Саша Крэйг, Лара Милликен, Марк В. Стронг-Описание: Группа студентов колледжа отправляется за город, чтобы вовсю оторваться на выходных: попить пивка, поплавать в озере и подышать чистым лесным воздухом. Но уже в первый день они сталкиваются с неотесанными фермерами Такером и Дэйлом, также решившими как следует оттянуться на природе. Приняв этих диковатых, но, в сущности, симпатичных ребят за «злобных местных», горожане решают дать деревенщине жесткий отпор. Но с каждым их шагом становится только хуже…-Качество видео: BDRip 720p | FireBit
Формат видео: MKV-Видео: 1280x544, 3049 kbps, 0.130 бит/(Пиксели*Кадры), 23.976 кадр/сек
Аудио: MP3, 2 ch, 192 Kbps | RUS AVO Кураж-Бамбей

MediaInfo

General
Unique ID : 195433530054873843765095248891614749801 (0x930720F6DFBF172392E12D1185A66469)
Complete name : K:\Фильмы зарубежные\Tucker.And.Dale.vs.Evil.2010.BDRip.720p.Kuraj-Bambej.mkv
Format : Matroska
Format version : Version 2
File size : 1.49 GiB
Duration : 1 h 28 min
Overall bit rate mode : Variable
Overall bit rate : 2 402 kb/s
Movie name : Убойные каникулы / Tucker & Dale vs Evil (2010) BDRip 720p от FireBit
Encoded date : UTC 2017-09-28 06:23:33
Writing application : mkvmerge v4.1.1 ('Bouncin' Back') сборка от Jul 3 2010 22:54:08
Writing library : libebml v1.0.0 + libmatroska v1.0.0
Video
ID : 1
Format : AVC
Format/Info : Advanced Video Codec
Format profile : High@L4.1
Format settings : CABAC / 3 Ref Frames
Format settings, CABAC : Yes
Format settings, Reference fra : 3 frames
Codec ID : V_MPEG4/ISO/AVC
Duration : 1 h 28 min
Bit rate mode : Variable
Bit rate : 2 163 kb/s
Maximum bit rate : 20.0 Mb/s
Width : 1 280 pixels
Height : 544 pixels
Display aspect ratio : 2.35:1
Frame rate mode : Constant
Frame rate : 23.976 (23976/1000) FPS
Color space : YUV
Chroma subsampling : 4:2:0
Bit depth : 8 bits
Scan type : Progressive
Bits/(Pixel*Frame) : 0.130
Stream size : 1.34 GiB (90%)
Title : Tucker and Dale vs Evil
Language : English
Default : Yes
Forced : No
Color range : Limited
Color primaries : BT.709
Transfer characteristics : BT.709
Matrix coefficients : BT.709
Audio
ID : 2
Format : MPEG Audio
Format version : Version 1
Format profile : Layer 3
Format settings : Joint stereo
Muxing mode : Header stripping
Codec ID : A_MPEG/L3
Codec ID/Hint : MP3
Duration : 1 h 28 min
Bit rate mode : Constant
Bit rate : 192 kb/s
Channel(s) : 2 channels
Sampling rate : 48.0 kHz
Compression mode : Lossy
Stream size : 122 MiB (8%)
Title : Кураж-Бамбей
Language : Russian
Default : Yes
Forced : No
-

_________________
Показать сообщения:    

Текущее время: 10-Авг 14:41

Часовой пояс: UTC - 5



Вы не можете начинать темы
Вы не можете отвечать на сообщения
Вы не можете редактировать свои сообщения
Вы не можете удалять свои сообщения
Вы не можете голосовать в опросах
Вы не можете прикреплять файлы к сообщениям
Вы не можете скачивать файлы