Регистрация ·
Имя: Пароль:  
· Забыли пароль? · Вопросы от гостей
Круиз по джунглям
Pazl Voice
WEB-DLRip-AVC
Папа Закодировался
Не требуется
WEB-DLRip
Маша
Не требуется
WEBRip
Прячься
iTunes
WEB-DL 1080p
The Ascent
RePack
Action, RPG
Форсаж 9
Чистый звук
WEB-DL 720p
Форсаж 9
Чистый звук
WEB-DLRip
Форсаж 9
Pazl Voice
WEB-DL 1080p
Папа за маму
iTunes
WEB-DLRip
Windows 7/10
Microsoft
7.7.2021
Убойные каникулы
Кураж-Бамбей
BDRip 720p
Уважаемые гости сайта! Добро Пожаловать на наш торрент трекер,где Вы можете бесплатно скачать любой Софт,Фильмы,Музыку и многое другое! А так же постоянно ведется набор модераторов и релизеров. Зарегистрируйтесь сейчас, чтобы получить доступ ко всем функциям. После регистрации или входа на сайт вы сможете создавать темы, отвечать на сообщения и скачивать файлы.

До нового года осталось

Charhpalak seriali / Сезон: 1 Серии: 20 из 20 FullHD 1080p

Статистика раздачи
Качаю: [ 1 ]
Скачал: [ 2 ]
Сегодня идет свободное скачивание без начисления Download
 
     
 
 
Автор Сообщение

Admin ®

Не в сети

2

VIP пользователь

Пол: Мужской

Стаж: 5 лет 6 месяцев

Сообщений: 171

Карма: 787

[+]

Провайдер: UzOnline UzOnline

Тарифный план: UNLIME 20 Mbit/sekund

Наличие запрета:



Награды: 2 (Подробнее)

Admin (Количество: 1) Авторитет (Количество: 1)
[Профиль] ЛС

Создавать темы 15-Ноя-2021 14:47

Цитировать

Charhpalak seriali
Chiqqan yili: 2000 yil
Davlat: O'zbekiston
Janr: Tarixiy, drama
Davomiyligi: 20 x 00:41:00
Tarjima :
Rejissiyor:
Rollarda:
Tavsif:
Videoning sifati: HDTV
Format video: MP4
Video: MPEG4 Video (H264) 1920x1080 25fps 4455kbps
Audio: AAC 48000Hz stereo 162kbps

Информация по видеофайлу

Format : MPEG-4
Format profile : Base Media
Codec ID : isom (isom/iso2/avc1/mp41)
File size : 1.74 GiB
Duration : 53 min 52 s
Overall bit rate mode : Variable
Overall bit rate : 4 623 kb/s
Video
ID : 1
Format : AVC
Format/Info : Advanced Video Codec
Format profile : Baseline@L4.1
Format settings : 2 Ref Frames
Format settings, CABAC : No
Format settings, Reference fra : 2 frames
Codec ID : avc1
Codec ID/Info : Advanced Video Coding
Duration : 53 min 52 s
Bit rate : 4 456 kb/s
Width : 1 920 pixels
Height : 1 080 pixels
Display aspect ratio : 16:9
Frame rate mode : Constant
Frame rate : 25.000 FPS
Color space : YUV
Chroma subsampling : 4:2:0
Bit depth : 8 bits
Scan type : Progressive
Bits/(Pixel*Frame) : 0.086
Stream size : 1.68 GiB (96%)
Title : vid
Codec configuration box : avcC
Audio
ID : 2
Format : AAC LC
Format/Info : Advanced Audio Codec Low Complexity
Codec ID : mp4a-40-2
Duration : 53 min 52 s
Bit rate mode : Variable
Bit rate : 163 kb/s
Nominal bit rate : 96.0 kb/s
Maximum bit rate : 192 kb/s
Channel(s) : 2 channels
Channel layout : L R
Sampling rate : 48.0 kHz
Frame rate : 46.875 FPS (1024 SPF)
Compression mode : Lossy
Stream size : 62.7 MiB (4%)
Title : snd
Default : Yes
Alternate group : 1
Показать сообщения:    

Текущее время: 05-Дек 18:10

Часовой пояс: UTC - 5



Вы не можете начинать темы
Вы не можете отвечать на сообщения
Вы не можете редактировать свои сообщения
Вы не можете удалять свои сообщения
Вы не можете голосовать в опросах
Вы не можете прикреплять файлы к сообщениям
Вы не можете скачивать файлы