Регистрация ·
Имя: Пароль:  
· Забыли пароль? · Вопросы от гостей
Круиз по джунглям
Pazl Voice
WEB-DLRip-AVC
Папа Закодировался
Не требуется
WEB-DLRip
Маша
Не требуется
WEBRip
Прячься
iTunes
WEB-DL 1080p
The Ascent
RePack
Action, RPG
Форсаж 9
Чистый звук
WEB-DL 720p
Форсаж 9
Чистый звук
WEB-DLRip
Форсаж 9
Pazl Voice
WEB-DL 1080p
Папа за маму
iTunes
WEB-DLRip
Windows 7/10
Microsoft
7.7.2021
Убойные каникулы
Кураж-Бамбей
BDRip 720p
Уважаемые гости сайта! Добро Пожаловать на наш торрент трекер,где Вы можете бесплатно скачать любой Софт,Фильмы,Музыку и многое другое! А так же постоянно ведется набор модераторов и релизеров. Зарегистрируйтесь сейчас, чтобы получить доступ ко всем функциям. После регистрации или входа на сайт вы сможете создавать темы, отвечать на сообщения и скачивать файлы.

До нового года осталось

Allohning habibi Muhammad / Сезоны:1,2,3 Серии: 90 из 90 FullHD 1080p

Статистика раздачи
Качаю: [ 1 ]
Скачал: [ 2 ]
Сегодня идет свободное скачивание без начисления Download
 
     
 
 
Автор Сообщение

Admin ®

Не в сети

2

VIP пользователь

Пол: Мужской

Стаж: 5 лет 6 месяцев

Сообщений: 171

Карма: 787

[+]

Провайдер: UzOnline UzOnline

Тарифный план: UNLIME 20 Mbit/sekund

Наличие запрета:



Награды: 2 (Подробнее)

Admin (Количество: 1) Авторитет (Количество: 1)
[Профиль] ЛС

Создавать темы 19-Ноя-2021 11:26

Цитировать

Allohning habibi Muhammad
Chiqqan Yili:
Davlat:
Janr:
Davomiyligi: 90 ~ 00:22:00
Tarjima: O'zbek Tilida
Sifat: WEBRip, 1080p
Format: MP4
Video: MPEG4 Video (H264) 1920x1080 25fps 3757kbps [V: h264 high L4.0, yuv420p, 1920x1080, 3757 kb/s]
Audio: AAC 44100Hz stereo 127kbps [A: SoundHandler [uzb] (aac lc, 44100 Hz, stereo, 127 kb/s)]

Allohning habibi Muhammad 1 fasl

Первый сезон сериала вращается вокруг биографии Пророка Мухаммеда, да благословит его Аллах и приветствует, еще до его рождения, когда Абраха попытался разрушить Аль-Каабу, чтобы изменить пункт назначения паломников из Мекки в Йемен. чтобы указать на то, что он был ожидаемым пророком. Он рос сиротой под опекой своего деда Абдула Мутталиба, а затем его заботой был его дядя Абу Талиб. Его называли честным и заслуживающим доверия, прежде чем он начал свой звонок, благодаря его честности, доверию и искренности.

Allohning habibi Muhammad 2 fasl

Второй сезон сериала начинается после Великой битвы при Бадре через вторжение в Ухуд, и последующие события показывают терпимость и творчество мастера творения, мир ему. В этом разделе мы рассмотрим этику Пророка (мир ему и благословение) и его терпимость к своим врагам евреев, а также историю Тамамы, который хотел убить Пророка, через то, что произошло с евреями Бани-Кинкаа и евреями из Бани Эль Надир до битвы при Бадре, финала и того, что случилось с историей о Мааоне, затем битва Аль-Хундак и примирение Худайбии. Также исповедует ислам Амра ибн Аль-Ааса и Халида бин Аль-Валида. Этот раздел заканчивается на примирении Худайбии.

Allohning habibi Muhammad 3 fasl

Третий сезон сериала начинается после того, как Амр ибн аль-Аас принимает ислам и Халид ибн аль-Валид принимает ислам, а затем вторжением Мута и посылкой Пророка мирных миссий ко всем царям земли, чтобы войти Ислам, а затем приход масс в религии к болезни любимого и его смерти лучшая молитва и мир ему, любимый и избранный, и заканчивает биографию смерти самого благородного из всех существ, мир праху его.
-

Информация по видеофайлу

Format : MPEG-4
Format profile : Base Media
Codec ID : isom (isom/iso2/avc1/mp41)
File size : 614 MiB
Duration : 22 min 3 s
Overall bit rate : 3 891 kb/s
Video
ID : 1
Format : AVC
Format/Info : Advanced Video Codec
Format profile : High@L4
Format settings : CABAC / 3 Ref Frames
Format settings, CABAC : Yes
Format settings, Reference fra : 3 frames
Codec ID : avc1
Codec ID/Info : Advanced Video Coding
Duration : 22 min 3 s
Bit rate : 3 758 kb/s
Width : 1 920 pixels
Height : 1 080 pixels
Display aspect ratio : 16:9
Frame rate mode : Constant
Frame rate : 25.000 FPS
Color space : YUV
Chroma subsampling : 4:2:0
Bit depth : 8 bits
Scan type : Progressive
Bits/(Pixel*Frame) : 0.072
Stream size : 593 MiB (97%)
Color range : Limited
Color primaries : BT.709
Transfer characteristics : BT.709
Matrix coefficients : BT.709
Codec configuration box : avcC
Audio
ID : 2
Format : AAC LC
Format/Info : Advanced Audio Codec Low Complexity
Codec ID : mp4a-40-2
Duration : 22 min 3 s
Bit rate mode : Constant
Bit rate : 128 kb/s
Channel(s) : 2 channels
Channel layout : L R
Sampling rate : 44.1 kHz
Frame rate : 43.066 FPS (1024 SPF)
Compression mode : Lossy
Stream size : 20.2 MiB (3%)
Language : English
Default : Yes
Alternate group : 1
Показать сообщения:    

Текущее время: 08-Дек 04:53

Часовой пояс: UTC - 5



Вы не можете начинать темы
Вы не можете отвечать на сообщения
Вы не можете редактировать свои сообщения
Вы не можете удалять свои сообщения
Вы не можете голосовать в опросах
Вы не можете прикреплять файлы к сообщениям
Вы не можете скачивать файлы