Регистрация ·
Имя: Пароль:  
· Забыли пароль? · Вопросы от гостей
Уважаемые гости сайта! Добро Пожаловать на наш торрент трекер,где Вы можете бесплатно скачать любой Софт,Фильмы,Музыку и многое другое! А так же постоянно ведется набор модераторов и релизеров. Зарегистрируйтесь сейчас, чтобы получить доступ ко всем функциям. После регистрации или входа на сайт вы сможете создавать темы, отвечать на сообщения и скачивать файлы.

Qog`ozdan yasalgan uy / Бумажный дом / Money Heist / La Casa de Papel [S01-05] (2017-2021) 720p / 1080p

Статистика раздачи
Качаю: [ 3 ]
Скачал: [ 3 ]
Сегодня идет свободное скачивание без начисления Download
 
     
 
 
Автор Сообщение

BestFriend ®

Не в сети

6493

Пол: Мужской

Стаж: 1 год

Сообщений: 36

Карма: 25

[+]

Провайдер: UzOnline UzOnline

Наличие запрета:



Награды: Нет

[Профиль] ЛС

Создавать темы 24-Дек-2021 07:19

Цитировать

Qog`ozdan yasalgan uy / Бумажный дом / Money Heist / La Casa de Papel--- ---Информация о фильме
Название: Бумажный дом
Оригинальное название: Money Heist / La Casa de Papel
Год выпуска: 2017-2021
Жанр: боевик, триллер, криминал, детектив
Режиссер: Хесус Кольменар, Алекс Родриго, Алехандро Бассано
В ролях: Альваро Морте, Урсула Корберо, Альба Флорес, Пако Тоус, Педро Алонсо, Ициар Итуньо, Мигель Эрран, Хайме Лорэнте, Эстер Асебо, Энрике Арсе-О фильме: Netflix по праву считается гигантом стриминга, и сегодня среди проектов онлайн-сервиса можно встретить сериалы из разных уголков планеты. Один из своих хитов боссы Netflix, сами того не предвидя, нашли в Испании. «Бумажный дом» — криминальная драма, созданная Алексом Пиной и неожиданно для многих ставшая мировым феноменом. Динамичная, эмоциональная, с лихо закрученным сюжетом — это далеко не полный перечень достоинств шоу, которое многие считают шедевром современного телевидения. История Робин Гудов в масках Дали и с автоматами затягивает с первого же эпизода, а галерея колоритных героев, положительных и отрицательных, достойна целого пособия о том, как нужно прописывать персонажей. Алексу Пине удалось создать новый вид сериального наркотика. Однажды познакомившись с «Бумажным домом» и его обитателями, уже не сможешь отказаться от очередной порции адреналина, который вырабатывается каждый раз, когда план Профессора оказывается под угрозой.-Наверное, каждый уважающий себя грабитель мечтал о том, чтобы совершить крупнейшее преступление в истории человечества. Не стал исключением и загадочный человек по прозвищу Профессор (Альваро Морте). С виду скромный учитель худощавого телосложения, очкарик, но за непритязательной внешностью скрывается ум преступного гения. Большую часть детства Профессор провел в больницах, а утешение он находил в рассказах отца. На глазах мальчика оживали сцены ограблений, и вот став взрослым, он решил воплотить в жизнь собственный гениальный план. Его цель — Королевский монетный двор Испании, который по праву можно назвать неприступной крепостью для чужаков. Его команда — сборище преступников, готовых рисковать собственной жизнью. Цена ошибки велика, но и приз в случае победы огромен. Они должны задержаться в монетном дворе на максимально долгий срок, чтобы напечатать банкнот на два с лишним миллиарда евро. Государство, по мнению Профессора, не обеднеет, ведь эти деньги осядут не в карманах богачей, а в реальной экономике. Однако полиция и представители власти думают иначе: они собирают команду высококлассных профессионалов, готовых работать сутками с одной целью — обыграть Профессора в его хитроумной шахматной игре. Вопрос не только в том, кто победит, но и в том, сколькими пешками готова пожертвовать каждая из сторон...-Страна: Испания
Студия: Vancouver Media
Продолжительность: ~00:49:00 серия
Перевод: Профессиональный (дублированный) Пифагор по заказу Netflix-Файл
Качество: WEB-DL 1080p
Формат: Matroska
Видео: 720p (S1-S4) 1920x1080 (S5)
Аудио#1: O'zbek Professional Dublaj (Mix Tv)
Аудио#2: Russian
Аудио#3: Spanish
-

Информация по видеофайлу

General
Unique ID : 1694585520094771663771459498850558067 (0x1465D8447177BF560341FF84972A073)
Complete name : La.Casa.De.Papel.720p_1080p\La.Casa.De.Papel.S01.720p\..
Format : Matroska
Format version : Version 4
File size : 1.02 GiB
Duration : 47 min 28 s
Overall bit rate : 3 087 kb/s
Encoded date : UTC 2021-05-11 09:19:34
Writing application : mkvmerge v48.0.0 ('Fortress Around Your Heart') 64-bit
Writing library : libebml v1.4.0 + libmatroska v1.6.0-Video
ID : 1
Format : AVC
Format/Info : Advanced Video Codec
Format profile : Main@L3.1
Format settings : CABAC / 2 Ref Frames
Format settings, CABAC : Yes
Format settings, Reference : 2 frames
Codec ID : V_MPEG4/ISO/AVC
Duration : 47 min 28 s
Bit rate : 2 570 kb/s
Width : 1 280 pixels
Height : 720 pixels
Display aspect ratio : 16:9
Frame rate mode : Constant
Frame rate : 25.000 FPS
Color space : YUV
Chroma subsampling : 4:2:0
Bit depth : 8 bits
Scan type : Progressive
Bits/(Pixel*Frame) : 0.112
Stream size : 873 MiB (83%)
Default : Yes
Forced : No-Audio #1
ID : 2
Format : AAC LC
Format/Info : Advanced Audio Codec Low Complexity
Codec ID : A_AAC-2
Duration : 47 min 28 s
Bit rate : 192 kb/s
Channel(s) : 2 channels
Channel layout : L R
Sampling rate : 44.1 kHz
Frame rate : 43.066 FPS (1024 SPF)
Compression mode : Lossy
Stream size : 65.7 MiB (6%)
Title : 901574707
Language : Uzbek
Default : No
Forced : No-Audio #2
ID : 3
Format : AC-3
Format/Info : Audio Coding 3
Commercial name : Dolby Digital
Codec ID : A_AC3
Duration : 47 min 28 s
Bit rate mode : Constant
Bit rate : 192 kb/s
Channel(s) : 2 channels
Channel layout : L R
Sampling rate : 48.0 kHz
Frame rate : 31.250 FPS (1536 SPF)
Compression mode : Lossy
Stream size : 65.2 MiB (6%)
Title : TVShows
Language : Russian
Service kind : Complete Main
Default : Yes
Forced : Yes-Audio #3
ID : 4
Format : E-AC-3
Format/Info : Enhanced AC-3
Commercial name : Dolby Digital Plus
Codec ID : A_EAC3
Duration : 47 min 28 s
Bit rate mode : Constant
Bit rate : 128 kb/s
Channel(s) : 2 channels
Channel layout : L R
Sampling rate : 48.0 kHz
Frame rate : 31.250 FPS (1536 SPF)
Compression mode : Lossy
Stream size : 43.5 MiB (4%)
Title : Original
Language : Spanish
Service kind : Complete Main
Default : No
Forced : No-Text
ID : 5
Format : UTF-8
Codec ID : S_TEXT/UTF8
Codec ID/Info : UTF-8 Plain Text
Duration : 46 min 31 s
Bit rate : 58 b/s
Count of elements : 597
Stream size : 20.0 KiB (0%)
Title : English
Language : English
Default : No
Forced : No
-

Скриншоты

Azikiy

Не в сети

6382

Пол: Мужской

Стаж: 1 год 7 месяцев

Сообщений: 1

Карма: 0

[+]

Провайдер: UzOnline UzOnline

Telegram: Azikiy

Наличие запрета:



Награды: Нет

[Профиль] ЛС

Создавать темы 26-Дек-2021 05:46 (спустя 1 день 22 часа)

Цитировать

BestFriend, ASSALOMU ALEYKUM ! OKA QOG'OZDAN YASALGAN UY FILMIGA SIDER BO'LIB TURING ILTIMOS !

BestFriend ®

Не в сети

6493

Пол: Мужской

Стаж: 1 год

Сообщений: 36

Карма: 25

[+]

Провайдер: UzOnline UzOnline

Наличие запрета:



Награды: Нет

[Профиль] ЛС

Создавать темы 26-Дек-2021 06:08 (спустя 22 минуты)

Цитировать

3..4.kunda Sidga quyishadi Jamshiddin aka
Показать сообщения:    

Текущее время: 25-Июн 14:42

Часовой пояс: UTC - 5



Вы не можете начинать темы
Вы не можете отвечать на сообщения
Вы не можете редактировать свои сообщения
Вы не можете удалять свои сообщения
Вы не можете голосовать в опросах
Вы не можете прикреплять файлы к сообщениям
Вы не можете скачивать файлы