Регистрация ·
Имя: Пароль:  
· Забыли пароль? · Вопросы от гостей
Уважаемые гости сайта! Добро Пожаловать на наш торрент трекер,где Вы можете бесплатно скачать любой Софт,Фильмы,Музыку и многое другое! А так же постоянно ведется набор модераторов и релизеров. Зарегистрируйтесь сейчас, чтобы получить доступ ко всем функциям. После регистрации или входа на сайт вы сможете создавать темы, отвечать на сообщения и скачивать файлы.

Lochinko'z / Соколиный Глаз (2021) (Hawkeye) (S1)

Статистика раздачи
Скачал: [ 2 ]
Сегодня идет свободное скачивание без начисления Download
 
     
 
 
Автор Сообщение

BestFriend ®

Не в сети

6493

Пол: Мужской

Стаж: 1 год 1 месяц

Сообщений: 36

Карма: 25

[+]

Провайдер: UzOnline UzOnline

Наличие запрета:



Награды: Нет

[Профиль] ЛС

Создавать темы 25-Дек-2021 04:03

Цитировать

Lochinko'z / Соколиный Глаз (2021) (Hawkeye)---
---Информация о фильме
Название: Соколиный глаз
Оригинальное название: Hawkeye
Год выхода: 2021
Жанр: Фантастика, боевик, драма, криминал, детектив, приключения
Режиссер: Риз Томас, Берт, Кэти Эллвуд
В ролях: Джереми Реннер, Хейли Стайнфелд, Флоренс Пью, Вера Фармига, Занн МаКларнон, Брайан Д’Арси Джеймс, Тони Далтон, Петр Адамчик
О фильме: Соколиный Глаз готов уйти на покой, но сперва он должен найти себе подходящую замену, поэтому начинает тренировать нового Соколиного Глаза — молодую Кейт Бишоп. Бартон должен научить Кейт, как быть супергероем без суперспособностей и спасать людей, полагаясь исключительно на свои навыки, смекалку и меткость.
-
Страна: США
Продолжительность: ~00:50:00
Перевод: Профессиональный (многоголосый, закадровый) HDRezka Studio, Mix TV-Формат: MKV
Видео кодек: AVC
Аудио кодек: AC3, AAC
Видео: MPEG-4 AVC, ~ 5770 Кбит/с, 1920x1080
Аудио: O'zbek Professional dublaj Mix Tv
Аудио: Русский №2 (AC3, 6 ch, 384 Кбит/с)
Аудио: Английский (E-AC3 JOC, 6 ch, 768 Кбит/с)
Перевод: HDrezka Studio, Jaskier, LostFilm, Mix Tv
-

Информация по видеофайлу

General
Unique ID : 174714807186084633409158197379469452784 (0x8370D90F3CBD9BC8AE850964BC10A5F0)
Complete name : K:\LOCHINKO`Z\Hawkeye.s01.WEDLRip(HEVC)1080p.xz\Hawkeye.S01E01.WEB-DL(HEVC)1080p. (uzb).mkv
Format : Matroska
Format version : Version 4
File size : 1.15 GiB
Duration : 47 min 21 s
Overall bit rate : 3 490 kb/s
Movie name : Hawkeye.S01E01.WEB-DL(HEVC)1080p.2x[MVO](HDRezka Studio,Jaskier), [Ukr MVO] (DniproFilm).xz
Encoded date : UTC 2021-12-12 11:38:29
Writing application : mkvmerge v9.9.0 ('Pick Up') 32bit
Writing library : libebml v1.3.4 + libmatroska v1.4.5
Video
ID : 1
Format : HEVC
Format/Info : High Efficiency Video Coding
Format profile : Main 10@L4@Main
Codec ID : V_MPEGH/ISO/HEVC
Duration : 47 min 21 s
Bit rate : 1 565 kb/s
Width : 1 920 pixels
Height : 804 pixels
Display aspect ratio : 2.40:1
Frame rate mode : Constant
Frame rate : 24.000 FPS
Color space : YUV
Chroma subsampling : 4:2:0
Bit depth : 10 bits
Bits/(Pixel*Frame) : 0.042
Stream size : 530 MiB (45%)
Title : Hawkeye.S01E01.WEB-DL(HEVC)1080p.2x[MVO](HDRezka Studio,Jaskier), [Ukr MVO] (DniproFilm).xz
Writing library : x265 3.5+1-f0c1022b6:[Windows][clang 12.0.0][64 bit] 10bit
Encoding settings : cpuid=1111039 / frame-threads=3 / numa-pools=12 / wpp / no-pmode / no-pme / no-psnr / no-ssim / log-level=2 / input-csp=1 / input-res=1920x804 / interlace=0 / total-frames=0 / level-idc=0 / high-tier=1 / uhd-bd=0 / ref=1 / no-allow-non-conformance / no-repeat-headers / annexb / no-aud / no-hrd / info / hash=0 / no-temporal-layers / open-gop / min-keyint=24 / keyint=240 / gop-lookahead=0 / bframes=3 / b-adapt=0 / b-pyramid / bframe-bias=0 / rc-lookahead=10 / lookahead-slices=5 / scenecut=40 / hist-scenecut=0 / radl=0 / no-splice / no-intra-refresh / ctu=32 / min-cu-size=8 / no-rect / no-amp / max-tu-size=32 / tu-inter-depth=1 / tu-intra-depth=1 / limit-tu=0 / rdoq-level=0 / dynamic-rd=0.00 / no-ssim-rd / signhide / no-tskip / nr-intra=0 / nr-inter=0 / no-constrained-intra / strong-intra-smoothing / max-merge=2 / limit-refs=0 / no-limit-modes / me=1 / subme=1 / merange=57 / temporal-mvp / no-frame-dup / no-hme / no-weightp / no-weightb / no-analyze-src-pics / deblock=0:0 / no-sao / no-sao-non-deblock / rd=2 / selective-sao=0 / early-skip / rskip / fast-intra / no-tskip-fast / no-cu-lossless / no-b-intra / no-splitrd-skip / rdpenalty=0 / psy-rd=2.00 / psy-rdoq=0.00 / no-rd-refine / no-lossless / cbqpoffs=0 / crqpoffs=0 / rc=crf / crf=20.0 / qcomp=0.60 / qpstep=4 / stats-write=0 / stats-read=0 / ipratio=1.40 / pbratio=1.30 / aq-mode=1 / aq-strength=0.00 / cutree / zone-count=0 / no-strict-cbr / qg-size=32 / no-rc-grain / qpmax=69 / qpmin=0 / no-const-vbv / sar=1 / overscan=0 / videoformat=5 / range=0 / colorprim=1 / transfer=1 / colormatrix=1 / chromaloc=0 / display-window=0 / cll=0,0 / min-luma=0 / max-luma=1023 / log2-max-poc-lsb=8 / vui-timing-info / vui-hrd-info / slices=1 / no-opt-qp-pps / no-opt-ref-list-length-pps / no-multi-pass-opt-rps / scenecut-bias=0.05 / hist-threshold=0.03 / no-opt-cu-delta-qp / no-aq-motion / no-hdr10 / no-hdr10-opt / no-dhdr10-opt / no-idr-recovery-sei / analysis-reuse-level=0 / analysis-save-reuse-level=0 / analysis-load-reuse-level=0 / scale-factor=0 / refine-intra=0 / refine-inter=0 / refine-mv=1 / refine-ctu-distortion=0 / no-limit-sao / ctu-info=0 / no-lowpass-dct / refine-analysis-type=0 / copy-pic=1 / max-ausize-factor=1.0 / no-dynamic-refine / no-single-sei / no-hevc-aq / no-svt / no-field / qp-adaptation-range=1.00 / scenecut-aware-qp=0conformance-window-offsets / right=0 / bottom=0 / decoder-max-rate=0 / no-vbv-live-multi-pass
Default : Yes
Forced : No
Color range : Limited
Color primaries : BT.709
Transfer characteristics : BT.709
Matrix coefficients : BT.709
Audio #1
ID : 2
Format : AAC LC
Format/Info : Advanced Audio Codec Low Complexity
Codec ID : A_AAC-2
Duration : 47 min 21 s
Bit rate : 192 kb/s
Channel(s) : 2 channels
Channel layout : L R
Sampling rate : 44.1 kHz
Frame rate : 43.066 FPS (1024 SPF)
Compression mode : Lossy
Delay relative to video : -5 ms
Stream size : 65.3 MiB (6%)
Title : 901574707
Language : Uzbek
Default : Yes
Forced : No
Audio #2
ID : 3
Format : AC-3
Format/Info : Audio Coding 3
Commercial name : Dolby Digital
Codec ID : A_AC3
Duration : 47 min 21 s
Bit rate mode : Constant
Bit rate : 448 kb/s
Channel(s) : 6 channels
Channel layout : L R C LFE Ls Rs
Sampling rate : 48.0 kHz
Frame rate : 31.250 FPS (1536 SPF)
Compression mode : Lossy
Delay relative to video : -5 ms
Stream size : 152 MiB (13%)
Title : HDRezka Studio
Language : Russian
Service kind : Complete Main
Default : No
Forced : No
Audio #3
ID : 4
Format : AC-3
Format/Info : Audio Coding 3
Commercial name : Dolby Digital
Codec ID : A_AC3
Duration : 47 min 21 s
Bit rate mode : Constant
Bit rate : 384 kb/s
Channel(s) : 6 channels
Channel layout : L R C LFE Ls Rs
Sampling rate : 48.0 kHz
Frame rate : 31.250 FPS (1536 SPF)
Compression mode : Lossy
Delay relative to video : -5 ms
Stream size : 130 MiB (11%)
Title : Jaskier
Language : Russian
Service kind : Complete Main
Default : No
Forced : No
Audio #4
ID : 5
Format : AC-3
Format/Info : Audio Coding 3
Commercial name : Dolby Digital
Codec ID : A_AC3
Duration : 47 min 21 s
Bit rate mode : Constant
Bit rate : 384 kb/s
Channel(s) : 6 channels
Channel layout : L R C LFE Ls Rs
Sampling rate : 48.0 kHz
Frame rate : 31.250 FPS (1536 SPF)
Compression mode : Lossy
Delay relative to video : -5 ms
Stream size : 130 MiB (11%)
Title : DniproFilm
Language : Ukrainian
Service kind : Complete Main
Default : No
Forced : No
Audio #5
ID : 6
Format : E-AC-3
Format/Info : Enhanced AC-3
Commercial name : Dolby Digital Plus
Codec ID : A_EAC3
Duration : 47 min 21 s
Bit rate mode : Constant
Bit rate : 512 kb/s
Channel(s) : 6 channels
Channel layout : L R C LFE Ls Rs
Sampling rate : 48.0 kHz
Frame rate : 31.250 FPS (1536 SPF)
Compression mode : Lossy
Delay relative to video : -5 ms
Stream size : 173 MiB (15%)
Title : Eng
Language : English
Service kind : Complete Main
Default : No
Forced : No
Text #1
ID : 7
Format : UTF-8
Codec ID : S_TEXT/UTF8
Codec ID/Info : UTF-8 Plain Text
Duration : 33 min 21 s
Bit rate : 10 b/s
Count of elements : 43
Stream size : 2.52 KiB (0%)
Title : rus (forced)
Language : Russian
Default : No
Forced : No
Text #2
ID : 8
Format : UTF-8
Codec ID : S_TEXT/UTF8
Codec ID/Info : UTF-8 Plain Text
Duration : 44 min 0 s
Bit rate : 75 b/s
Count of elements : 484
Stream size : 24.4 KiB (0%)
Title : rus (full)
Language : Russian
Default : No
Forced : No
Text #3
ID : 9
Format : UTF-8
Codec ID : S_TEXT/UTF8
Codec ID/Info : UTF-8 Plain Text
Duration : 30 min 30 s
Bit rate : 9 b/s
Count of elements : 41
Stream size : 2.12 KiB (0%)
Title : ukr (forced)
Language : Ukrainian
Default : No
Forced : No
Text #4
ID : 10
Format : ASS
Codec ID : S_TEXT/ASS
Codec ID/Info : Advanced Sub Station Alpha
Duration : 43 min 58 s
Bit rate : 80 b/s
Count of elements : 492
Compression mode : Lossless
Stream size : 25.9 KiB (0%)
Language : English
Default : No
Forced : No
Text #5
ID : 11
Format : ASS
Codec ID : S_TEXT/ASS
Codec ID/Info : Advanced Sub Station Alpha
Duration : 44 min 51 s
Bit rate : 102 b/s
Count of elements : 632
Compression mode : Lossless
Stream size : 33.8 KiB (0%)
Title : SDH
Language : English
Default : No
Forced : No
-

Скриншоты

Показать сообщения:    

Текущее время: 10-Авг 15:22

Часовой пояс: UTC - 5



Вы не можете начинать темы
Вы не можете отвечать на сообщения
Вы не можете редактировать свои сообщения
Вы не можете удалять свои сообщения
Вы не можете голосовать в опросах
Вы не можете прикреплять файлы к сообщениям
Вы не можете скачивать файлы