Регистрация ·
Имя: Пароль:  
· Забыли пароль? · Вопросы от гостей
Уважаемые гости сайта! Добро Пожаловать на наш торрент трекер,где Вы можете бесплатно скачать любой Софт,Фильмы,Музыку и многое другое! А так же постоянно ведется набор модераторов и релизеров. Зарегистрируйтесь сейчас, чтобы получить доступ ко всем функциям. После регистрации или входа на сайт вы сможете создавать темы, отвечать на сообщения и скачивать файлы.

Вечные / Eternals (Хлоя Чжао / Chloé Zhao) [2021, Фантастика, фэнтези, боевик, BDRip 1080p HEVC | 60 fps]

Статистика раздачи
Нет
Сегодня идет свободное скачивание без начисления Download
 
     
 
 
Автор Сообщение

kat222000 ®

Не в сети

6582

Пол: Мужской

Стаж: 9 месяцев

Сообщений: 9

Карма: 0

[+]

Провайдер: ISTV ISTV

Наличие запрета:



Награды: Нет

[Профиль] ЛС

Создавать темы 28-Янв-2022 01:59

Цитировать


Вечные / Eternals«In the beginning...» -Страна: США
Жанр: Фантастика, фэнтези, боевик, приключения
Год выпуска: 2021
Продолжительность: 02:12:33
Перевод: Профессиональный (полное дублирование)
Субтитры: Русские | Полные-Режиссер: Хлоя Чжао / Chloé Zhao-В ролях: Джемма Чан, Ричард Мэдден, Анджелина Джоли, Сальма Хайек, Кит Харингтон, Кумэйл Нанджиани, Лиа МакХью, Брайан Тайри Генри, Лорен Ридлофф, Барри Кеоган-Описание: Много тысячелетий назад с планеты Олимпия на Землю была отправлена группа сверхлюдей, обладающих суперспособностями, — Вечные. С доисторических времён они защищали человечество от нападений ужасных чудовищ девиантов, но любое другое вмешательство в развитие цивилизации им было запрещено.
Начало XXI века. Уже несколько столетий прошло с тех пор, как был уничтожен последний девиант, когда после странного землетрясения внезапно объявляется новый монстр. Теперь живущим в разных уголках планеты Вечным снова придётся сплотить силы, чтобы противостоять новой угрозе.- -Качество видео: BDRip 1080p HEVC | 60 fps
Формат видео: MKV
Видео кодек: V_MPEGH/ISO/HEVC
Аудио кодек: AC3
Видео: 1 920x804 (2.40:1), 59,940 fps, V_MPEGH/ISO/HEVC ~3 597 kbps avg, 0.039 bit/pixel
Аудио: 48 kHz, AC3 Dolby Digital, 3/2 (L,C,R,l,r) + LFE ch, ~384.00 kbps avg (Русский | DUB)
Навигация по главам: есть-

〤 ОтчетМедиаИнфо 〤

Общее
Уникальный идентификатор : 239864199953010809384191696552187557704 (0xB4742A1E7B1164B188645592F16E7748)
Формат : Matroska
Версия формата : Version 2
Размер файла : 4,42 Гбайт
Продолжительность : 2 ч. 35 м.
Общий поток : 4 062 Кбит/сек
Название фильма : Rip by from DD2D3
Дата кодирования : UTC 2022-01-27 15:22:47
Программа кодирования : mkvmerge v7.8.0 ('River Man') 32bit built on Apr 3 2015 12:11:22
Библиотека кодирования : libebml v1.3.1 + libmatroska v1.4.2
Attachments : poster
Видео
Идентификатор : 1
Формат : HEVC
Формат/Информация : High Efficiency Video Coding
Профиль формата : Main 10@L4.1@Main
Идентификатор кодека : V_MPEGH/ISO/HEVC
Продолжительность : 2 ч. 35 м.
Битрейт : 3 597 Кбит/сек
Ширина : 1 920 пикселей
Высота : 804 пикселя
Соотношение сторон : 2,40:1
Режим частоты кадров : Постоянный
Частота кадров : 59,940 (60000/1001) кадров/сек
Цветовое пространство : YUV
Субдискретизация насыщенности : 4:2:0
Битовая глубина : 10 бит
Бит/(Пиксели*Кадры) : 0.039
Размер потока : 3,92 Гбайт (89%)
Библиотека кодирования : x265 3.5+10-82786fccc:[Windows][GCC 11.1.0][64 bit] 10bit
Настройки программы : cpuid=1111039 / frame-threads=2 / numa-pools=4 / wpp / no-pmode / no-pme / no-psnr / no-ssim / log-level=2 / input-csp=1 / input-res=1920x804 / interlace=0 / total-frames=560453 / level-idc=41 / high-tier=1 / uhd-bd=0 / ref=3 / no-allow-non-conformance / no-repeat-headers / annexb / no-aud / no-eob / no-eos / no-hrd / info / hash=0 / no-temporal-layers / open-gop / min-keyint=25 / keyint=250 / gop-lookahead=0 / bframes=4 / b-adapt=2 / b-pyramid / bframe-bias=0 / rc-lookahead=20 / lookahead-slices=5 / scenecut=40 / hist-scenecut=0 / radl=0 / no-splice / no-intra-refresh / ctu=64 / min-cu-size=8 / no-rect / no-amp / max-tu-size=32 / tu-inter-depth=1 / tu-intra-depth=1 / limit-tu=0 / rdoq-level=0 / dynamic-rd=0.00 / no-ssim-rd / signhide / no-tskip / nr-intra=0 / nr-inter=0 / no-constrained-intra / strong-intra-smoothing / max-merge=3 / limit-refs=1 / no-limit-modes / me=2 / subme=5 / merange=57 / temporal-mvp / no-frame-dup / no-hme / weightp / no-weightb / no-analyze-src-pics / deblock=0:0 / no-sao / no-sao-non-deblock / rd=3 / selective-sao=0 / early-skip / no-rskip / no-fast-intra / no-tskip-fast / no-cu-lossless / b-intra / no-splitrd-skip / rdpenalty=0 / psy-rd=4.00 / psy-rdoq=0.00 / no-rd-refine / no-lossless / cbqpoffs=0 / crqpoffs=0 / rc=abr / bitrate=3800 / qcomp=0.60 / qpstep=1 / stats-write=0 / stats-read=2 / cplxblur=20.0 / qblur=0.5 / ipratio=1.10 / pbratio=1.00 / aq-mode=0 / aq-strength=0.00 / no-cutree / zone-count=0 / no-strict-cbr / qg-size=64 / rc-grain / qpmax=69 / qpmin=0 / const-vbv / sar=1 / overscan=0 / videoformat=5 / range=0 / colorprim=2 / transfer=2 / colormatrix=2 / chromaloc=0 / display-window=0 / cll=0,0 / min-luma=0 / max-luma=1023 / log2-max-poc-lsb=8 / vui-timing-info / vui-hrd-info / slices=1 / no-opt-qp-pps / no-opt-ref-list-length-pps / no-multi-pass-opt-rps / scenecut-bias=0.05 / hist-threshold=0.03 / no-opt-cu-delta-qp / no-aq-motion / no-hdr10 / no-hdr10-opt / no-dhdr10-opt / no-idr-recovery-sei / analysis-reuse-level=0 / analysis-save-reuse-level=0 / analysis-load-reuse-level=0 / scale-factor=0 / refine-intra=0 / refine-inter=0 / refine-mv=1 / refine-ctu-distortion=0 / no-limit-sao / ctu-info=0 / no-lowpass-dct / refine-analysis-type=0 / copy-pic=1 / max-ausize-factor=1.0 / no-dynamic-refine / no-single-sei / no-hevc-aq / no-svt / no-field / qp-adaptation-range=1.00 / scenecut-aware-qp=0conformance-window-offsets / right=0 / bottom=0 / decoder-max-rate=0 / no-vbv-live-multi-pass
Default : Да
Forced : Нет
Аудио
Идентификатор : 2
Формат : AC-3
Формат/Информация : Audio Coding 3
Коммерческое название : Dolby Digital
Идентификатор кодека : A_AC3
Продолжительность : 2 ч. 35 м.
Вид битрейта : Постоянный
Битрейт : 384 Кбит/сек
Каналы : 6 каналов
Channel layout : L R C LFE Ls Rs
Частота : 48,0 КГц
Частота кадров : 31,250 кадров/сек (1536 SPF)
Метод сжатия : С потерями
Размер потока : 428 Мбайт (9%)
Заголовок : iTunes
Язык : Russian
Service kind : Complete Main
Default : Да
Forced : Да
Statistics Tags Issue : mkvmerge v59.0.0 ('Shining Star') 64-bit 2022-01-25 03:53:49 / mkvmerge v7.8.0 ('River Man') 32bit built on Apr 3 2015 12:11:22 2022-01-27 15:22:47
FromStats_BitRate : 384000
FromStats_Duration : 02:35:50.272000000
FromStats_FrameCount : 292196
FromStats_StreamSize : 448813056
Текст
Идентификатор : 3
Формат : UTF-8
Идентификатор кодека : S_TEXT/UTF8
Идентификатор кодека/Информация : UTF-8 Plain Text
Заголовок : iTunes
Язык : Russian
Default : Нет
Forced : Нет
Statistics Tags Issue : mkvmerge v59.0.0 ('Shining Star') 64-bit 2022-01-25 03:53:49 / mkvmerge v7.8.0 ('River Man') 32bit built on Apr 3 2015 12:11:22 2022-01-27 15:22:47
FromStats_BitRate : 65
FromStats_Duration : 02:33:47.096000000
FromStats_FrameCount : 1542
FromStats_StreamSize : 75414
Меню
00:00:00.000 : en:Глава 01
00:06:43.194 : en:Глава 02
00:20:22.888 : en:Глава 03
00:31:11.703 : en:Глава 04
00:35:04.436 : en:Глава 05
00:43:01.412 : en:Глава 06
00:49:29.008 : en:Глава 07
00:55:50.097 : en:Глава 08
01:02:29.537 : en:Глава 09
01:07:56.531 : en:Глава 10
01:10:39.569 : en:Глава 11
01:18:58.275 : en:Глава 12
01:24:36.780 : en:Глава 13
01:29:56.516 : en:Глава 14
01:36:03.049 : en:Глава 15
01:42:47.578 : en:Глава 16
01:46:27.881 : en:Глава 17
01:51:51.163 : en:Глава 18
01:55:57.951 : en:Глава 19
02:01:46.132 : en:Глава 20
02:06:30.249 : en:Глава 21
02:11:41.894 : en:Глава 22
02:16:32.351 : en:Глава 23
02:23:10.665 : en:Глава 24
02:25:45.028 : en:Глава 25
02:27:56.493 : en:Глава 26
02:34:27.175 : en:Глава 27
-

_________________
Показать сообщения:    

Текущее время: 15-Авг 13:22

Часовой пояс: UTC - 5



Вы не можете начинать темы
Вы не можете отвечать на сообщения
Вы не можете редактировать свои сообщения
Вы не можете удалять свои сообщения
Вы не можете голосовать в опросах
Вы не можете прикреплять файлы к сообщениям
Вы не можете скачивать файлы