Регистрация ·
Имя: Пароль:  
· Забыли пароль? · Вопросы от гостей
Уважаемые гости сайта! Добро Пожаловать на наш торрент трекер,где Вы можете бесплатно скачать любой Софт,Фильмы,Музыку и многое другое! А так же постоянно ведется набор модераторов и релизеров. Зарегистрируйтесь сейчас, чтобы получить доступ ко всем функциям. После регистрации или входа на сайт вы сможете создавать темы, отвечать на сообщения и скачивать файлы.

Мы все мертвы / Jigeum uri hakgyoneun / All of Us Are Dead [S01] (2022) WEB-DL 1080p | HDrezka Studio

Статистика раздачи
Скачал: [ 1 ]
Сегодня идет свободное скачивание без начисления Download
 
     
 
 
Автор Сообщение

BestFriend ®

Не в сети

6493

Пол: Мужской

Стаж: 1 год 1 месяц

Сообщений: 36

Карма: 25

[+]

Провайдер: UzOnline UzOnline

Наличие запрета:



Награды: Нет

[Профиль] ЛС

Создавать темы 04-Фев-2022 16:43

Цитировать

Мы все мертвы / Jigeum uri hakgyoneun / All of Us Are Dead Информация о фильме
Название: Мы все мертвы
Оригинальное название: Jigeum uri hakgyoneun / All of Us Are Dead
Год выхода: 2022
Жанр: ужасы, боевик, драма
Режиссер: Ли Джэ-гю, Ким Нам-су
В ролях: Юн Чхан-ён, Пак Чи-ху, Чо И-хён, Пак Соломон, Ю Ин-су, Ан Сын-гюн, О Хи-джун, Ли Ын-сэм, Щин Джэ-хви, Ким Бён-чхоль
О фильме: Сериал по корейскому вебтуну «Сейчас в нашей школе» о старшеклассниках, которые оказываются запертыми в школе во время зомби-апокалипсиса. Смесь хоррора и драмы взросления сняли Ли Джэ-гю («Вирус Бетховена») и Ким Нам-су — продюсер, для которого «Мы все мертвы» станет режиссерским дебютом. В ролях — молодые корейские звезды Юн Чхан-ён («Никто не знает»), Чо И-хён («Школа 2021») и Пак Чи-ху (драма «Колибри», получившая приз Берлинале).
В старшей школе города Хёсан творятся нехорошие вещи. Некоторые учащиеся, в том числе сын учителя Ли, стабильно подвергаются буллингу, а руководство школы закрывает на это глаза. Когда одну ученицу кусает лабораторный хомячок, Ли изолирует её и попадает под подозрение в похищении — пострадавшую отвозят в больницу, а учителя, несмотря на его протесты и просьбы объявить карантин, — в полицию. Но зомбивирусная инфекция уже передалась школьной медсестре и начала быстро захватывать учащихся, и теперь, чтобы не попасться на зубок бывшим одноклассникам, немногочисленным выжившим придется проявить все свои навыки и смекалку.-Страна: Южная Корея
Студия: Film Monster Co., Joongang Tongyang Broadcasting Company (JTBC), Netflix
Продолжительность: ~01:00:00 серия
Перевод: Профессиональный (многоголосый, закадровый) HDrezka Studio
Файл
Качество: WEB-DL 1080p | All.of.Us.Are.Dead.S01.KOREAN.1080p.NF.WEBRip.DDP5.1.x264-TEPES
Формат: Matroska
Видео: 1920x1080 at 23.976 fps, MPEG4-AVC, ~3600-6200 kbps avg
Аудио#0: Uzbek: AAC, 2 ch, 187 kbps | Mix tv
Аудио#1: Russian: 48 kHz, AC3, 3/2 (L,C,R,l,r) + LFE ch, ~448 kbps avg |Многоголосый закадровый, HDrezka Studio|
Аудио#2: Korean: 48 kHz, E-AC3, 3/2 (L,C,R,l,r) + LFE ch, ~640 kbps avg
Аудио#3: English: 48 kHz, E-AC3, 3/2 (L,C,R,l,r) + LFE ch, ~640 kbps avg
Субтитры: Russian (Forced, Full |NF|), Korean (SDH), English (Forced, Full, SDH)-

Информация по видеофайлу

General
Unique ID : 190881247126184479055871438798209312534 (0x8F9A64165CE32181AF59AFE0769E6716)
Complete name : K:\All.of.Us.Are.Dead.S01.WEB-DL.1080p.NF.DDP5.1.x264-TEPES_RUTOR
Format : Matroska
Format version : Version 4
File size : 2.55 GiB
Duration : 1 h 6 min
Overall bit rate mode : Variable
Overall bit rate : 5 498 kb/s
Movie name : All of Us Are Dead S01E01 | mrrvg@rutor
Encoded date : UTC 2022-02-01 11:21:00
Writing application : mkvmerge v9.9.0 ('Pick Up') 32bit
Writing library : libebml v1.3.4 + libmatroska v1.4.5
Video
ID : 1
Format : AVC
Format/Info : Advanced Video Codec
Format profile : Main@L4
Format settings : CABAC / 3 Ref Frames
Format settings, CABAC : Yes
Format settings, Reference : 3 frames
Codec ID : V_MPEG4/ISO/AVC
Duration : 1 h 6 min
Bit rate mode : Variable
Bit rate : 3 593 kb/s
Nominal bit rate : 5 360 kb/s
Maximum bit rate : 8 040 kb/s
Width : 1 920 pixels
Height : 1 080 pixels
Display aspect ratio : 16:9
Frame rate mode : Constant
Frame rate : 23.976 (24000/1001) FPS
Color space : YUV
Chroma subsampling : 4:2:0
Bit depth : 8 bits
Scan type : Progressive
Bits/(Pixel*Frame) : 0.072
Stream size : 1.67 GiB (65%)
Writing library : x264 core 148 r2727 7d026e8
Encoding settings : cabac=1 / ref=3 / deblock=1:0:0 / analyse=0x1:0x111 / me=umh / subme=10 / psy=1 / psy_rd=1.00:0.00 / mixed_ref=1 / me_range=24 / chroma_me=1 / trellis=2 / 8x8dct=0 / cqm=0 / deadzone=21,11 / fast_pskip=1 / chroma_qp_offset=-2 / threads=8 / lookahead_threads=1 / sliced_threads=0 / nr=0 / decimate=1 / interlaced=0 / bluray_compat=0 / stitchable=1 / constrained_intra=0 / bframes=2 / b_pyramid=0 / b_adapt=2 / b_bias=0 / direct=3 / weightb=1 / open_gop=0 / weightp=2 / keyint=250 / keyint_min=23 / scenecut=0 / intra_refresh=0 / rc_lookahead=48 / rc=2pass / mbtree=1 / bitrate=5360 / ratetol=1.0 / qcomp=0.50 / qpmin=6 / qpmax=51 / qpstep=4 / cplxblur=20.0 / qblur=0.5 / vbv_maxrate=8040 / vbv_bufsize=10720 / nal_hrd=vbr / filler=0 / ip_ratio=1.40 / aq=1:1.00
Default : Yes
Forced : No
Audio #1
ID : 2
Format : AAC LC
Format/Info : Advanced Audio Codec Low Complexity
Codec ID : A_AAC-2
Duration : 1 h 6 min
Bit rate : 187 kb/s
Channel(s) : 2 channels
Channel layout : L R
Sampling rate : 44.1 kHz
Frame rate : 43.066 FPS (1024 SPF)
Compression mode : Lossy
Stream size : 88.6 MiB (3%)
Title : @Best_4707
Language : Uzbek
Default : Yes
Forced : No
Audio #2
ID : 3
Format : AC-3
Format/Info : Audio Coding 3
Commercial name : Dolby Digital
Codec ID : A_AC3
Duration : 1 h 4 min
Bit rate mode : Constant
Bit rate : 448 kb/s
Channel(s) : 6 channels
Channel layout : L R C LFE Ls Rs
Sampling rate : 48.0 kHz
Frame rate : 31.250 FPS (1536 SPF)
Compression mode : Lossy
Stream size : 206 MiB (8%)
Language : Russian
Service kind : Complete Main
Default : No
Forced : No
Audio #3
ID : 4
Format : E-AC-3
Format/Info : Enhanced AC-3
Commercial name : Dolby Digital Plus
Codec ID : A_EAC3
Duration : 1 h 6 min
Bit rate mode : Constant
Bit rate : 640 kb/s
Channel(s) : 6 channels
Channel layout : L R C LFE Ls Rs
Sampling rate : 48.0 kHz
Frame rate : 31.250 FPS (1536 SPF)
Compression mode : Lossy
Stream size : 304 MiB (12%)
Language : Korean
Service kind : Complete Main
Default : No
Forced : No
Audio #4
ID : 5
Format : E-AC-3
Format/Info : Enhanced AC-3
Commercial name : Dolby Digital Plus
Codec ID : A_EAC3
Duration : 1 h 6 min
Bit rate mode : Constant
Bit rate : 640 kb/s
Channel(s) : 6 channels
Channel layout : L R C LFE Ls Rs
Sampling rate : 48.0 kHz
Frame rate : 31.250 FPS (1536 SPF)
Compression mode : Lossy
Stream size : 304 MiB (12%)
Language : English
Service kind : Complete Main
Default : No
Forced : No
Text #1
ID : 6
Format : UTF-8
Codec ID : S_TEXT/UTF8
Codec ID/Info : UTF-8 Plain Text
Duration : 1 h 0 min
Bit rate : 2 b/s
Count of elements : 25
Stream size : 927 Bytes (0%)
Title : Forced
Language : Russian
Default : Yes
Forced : No
Text #2
ID : 7
Format : UTF-8
Codec ID : S_TEXT/UTF8
Codec ID/Info : UTF-8 Plain Text
Duration : 1 h 4 min
Bit rate : 72 b/s
Count of elements : 906
Stream size : 34.1 KiB (0%)
Title : Full
Language : Russian
Default : No
Forced : No
Text #3
ID : 8
Format : UTF-8
Codec ID : S_TEXT/UTF8
Codec ID/Info : UTF-8 Plain Text
Duration : 1 h 0 min
Bit rate : 1 b/s
Count of elements : 26
Stream size : 655 Bytes (0%)
Title : Forced
Language : English
Default : No
Forced : No
Text #4
ID : 9
Format : UTF-8
Codec ID : S_TEXT/UTF8
Codec ID/Info : UTF-8 Plain Text
Duration : 1 h 4 min
Bit rate : 95 b/s
Count of elements : 1220
Stream size : 44.8 KiB (0%)
Title : SDH
Language : Korean
Default : No
Forced : No
Text #5
ID : 10
Format : UTF-8
Codec ID : S_TEXT/UTF8
Codec ID/Info : UTF-8 Plain Text
Duration : 1 h 3 min
Bit rate : 49 b/s
Count of elements : 888
Stream size : 23.0 KiB (0%)
Title : Full
Language : English
Default : No
Forced : No
Text #6
ID : 11
Format : UTF-8
Codec ID : S_TEXT/UTF8
Codec ID/Info : UTF-8 Plain Text
Duration : 1 h 4 min
Bit rate : 74 b/s
Count of elements : 1321
Stream size : 34.9 KiB (0%)
Title : SDH
Language : English
Default : No
Forced : No
-

Скриншоты

Показать сообщения:    

Текущее время: 10-Авг 16:18

Часовой пояс: UTC - 5



Вы не можете начинать темы
Вы не можете отвечать на сообщения
Вы не можете редактировать свои сообщения
Вы не можете удалять свои сообщения
Вы не можете голосовать в опросах
Вы не можете прикреплять файлы к сообщениям
Вы не можете скачивать файлы