Регистрация ·
Имя: Пароль:  
· Забыли пароль? · Вопросы от гостей
Уважаемые гости сайта! Добро Пожаловать на наш торрент трекер,где Вы можете бесплатно скачать любой Софт,Фильмы,Музыку и многое другое! А так же постоянно ведется набор модераторов и релизеров. Зарегистрируйтесь сейчас, чтобы получить доступ ко всем функциям. После регистрации или входа на сайт вы сможете создавать темы, отвечать на сообщения и скачивать файлы.

Милый дом / Seuwiteuhom / Sweet Home [S01] (2020) WEB-DLRip 1080p | IdeaFilm

Статистика раздачи
Скачал: [ 1 ]
Сегодня идет свободное скачивание без начисления Download
 
     
 
 
Автор Сообщение

BestFriend ®

Не в сети

6493

Пол: Мужской

Стаж: 1 год 1 месяц

Сообщений: 36

Карма: 25

[+]

Провайдер: UzOnline UzOnline

Наличие запрета:



Награды: Нет

[Профиль] ЛС

Создавать темы 15-Фев-2022 05:38

Цитировать

Daxshatli Uy / Милый дом / Seuwiteuhom / Sweet Home
Название: Милый дом
Оригинальное название: Seuwiteuhom (Sweet Home)
Год выпуска: 2020
Жанр: Ужасы, боевик, фантастика
Выпущено: Корея Южная, NetFlix, Studio Dragon, TVN
Режиссер: Ли Ын-бок
В ролях: Сон Ган, Ли Джин-ук, Пак Кю-ён, Ко Юн-джон, Ли До-хён, Ко Мин-щи, Гап Су Ким, Ким Нам-хи, Ли Щи-ён, Ким Сан-хо-О фильме: Замкнутый старшеклассник Чха Хён-су редко выходит из дома и не общается с домашними. Однажды вся его семья погибает в автоаварии, парень остаётся совсем один, и теперь ему приходится переехать в маленькую квартирку. А в это время во всём мире начинает происходить нечто странное - люди повсеместно превращаются в чудовищ. Хён-су придётся преодолеть себя и поближе познакомиться с новыми соседями, чтобы противостоять неожиданной угрозе.-Продолжительность: ~ 00:50:00
Перевод: Профессиональный двухголосый (IdeaFilm)-Кодек: H.264
Качество: WEB-DLRip 1080p
Видео: MPEG-4 AVC, ~ 7000 Kбит/с, 1920х960
Аудио: Русский, корейский (AC3, 6 ch, 384 Кбит/с)
Аудио: Korean / AC3 / 48.0 kHz
Аудио: O'zbek Mix Tv-Внимание, присутствует реклама!

Sweet Home | Official Trailer | Netflix

https://www.youtube.com/watch?v=7rI56NmD33Y
-

Скриншоты

-

Информация по видеофайлу

General
Unique ID : 236376535390296906823700965447058178706 (0xB1D476FAE55C385285B88BB89475C292)
Complete name : K:\M E D I A S E R I A L\SERIAL\Sweet.Home.S01.WEB-DLRip.1080p\Sweet.Home.S01E01.WEB-DLRip.1080p.IdeaFilm (uzb).mkv
Format : Matroska
Format version : Version 4
File size : 2.92 GiB
Duration : 49 min 21 s
Overall bit rate : 8 456 kb/s
Encoded date : UTC 2022-02-11 15:58:55
Writing application : mkvmerge v9.9.0 ('Pick Up') 32bit
Writing library : libebml v1.3.4 + libmatroska v1.4.5
Video
ID : 1
Format : AVC
Format/Info : Advanced Video Codec
Format profile : Main@L4.1
Format settings : CABAC / 1 Ref Frames
Format settings, CABAC : Yes
Format settings, Reference : 1 frame
Format settings, GOP : M=1, N=30
Codec ID : V_MPEG4/ISO/AVC
Duration : 49 min 21 s
Bit rate : 7 244 kb/s
Width : 1 920 pixels
Height : 960 pixels
Display aspect ratio : 2.000
Frame rate mode : Constant
Frame rate : 23.976 (24000/1001) FPS
Color space : YUV
Chroma subsampling : 4:2:0
Bit depth : 8 bits
Scan type : Progressive
Bits/(Pixel*Frame) : 0.164
Stream size : 2.50 GiB (86%)
Language : English
Default : Yes
Forced : No
Audio #1
ID : 2
Format : AAC LC
Format/Info : Advanced Audio Codec Low Complexity
Codec ID : A_AAC-2
Duration : 49 min 21 s
Bit rate : 192 kb/s
Channel(s) : 2 channels
Channel layout : L R
Sampling rate : 44.1 kHz
Frame rate : 43.066 FPS (1024 SPF)
Compression mode : Lossy
Stream size : 67.9 MiB (2%)
Title : @Best_4707
Language : Uzbek
Default : Yes
Forced : No
Audio #2
ID : 3
Format : AC-3
Format/Info : Audio Coding 3
Commercial name : Dolby Digital
Codec ID : A_AC3
Duration : 49 min 21 s
Bit rate mode : Constant
Bit rate : 384 kb/s
Channel(s) : 6 channels
Channel layout : L R C LFE Ls Rs
Sampling rate : 48.0 kHz
Frame rate : 31.250 FPS (1536 SPF)
Compression mode : Lossy
Stream size : 136 MiB (5%)
Title : IDEAFILM
Language : Russian
Service kind : Complete Main
Default : No
Forced : No
Audio #3
ID : 4
Format : AC-3
Format/Info : Audio Coding 3
Codec ID : A_AC3
Duration : 48 min 48 s
Bit rate : 640 kb/s
Channel(s) : 6 channels
Sampling rate : 48.0 kHz
Frame rate : 31.250 FPS (1536 SPF)
Compression mode : Lossy
Stream size : 223 MiB (7%)
Language : Korean
Default : No
Forced : No
Показать сообщения:    

Текущее время: 10-Авг 15:33

Часовой пояс: UTC - 5



Вы не можете начинать темы
Вы не можете отвечать на сообщения
Вы не можете редактировать свои сообщения
Вы не можете удалять свои сообщения
Вы не можете голосовать в опросах
Вы не можете прикреплять файлы к сообщениям
Вы не можете скачивать файлы