Регистрация ·
Имя: Пароль:  
· Забыли пароль? · Вопросы от гостей
Уважаемые гости сайта! Добро Пожаловать на наш торрент трекер,где Вы можете бесплатно скачать любой Софт,Фильмы,Музыку и многое другое! А так же постоянно ведется набор модераторов и релизеров. Зарегистрируйтесь сейчас, чтобы получить доступ ко всем функциям. После регистрации или входа на сайт вы сможете создавать темы, отвечать на сообщения и скачивать файлы.

Ambrella Akademiyasi / Академия «Амбрелла» / The Umbrella Academy / Сезон: 1 / Серии: 1-10 из 10 (Эндрю Бернштейн, Питер Хор, Эллен Кёрас) [2019, фантастика, фэнтези, боевик, драма, комедия, приключения, WEBRip 1080p]

Статистика раздачи
Скачал: [ 1 ]
Сегодня идет свободное скачивание без начисления Download
 
     
 
 
Автор Сообщение

BestFriend ®

Не в сети

6493

Пол: Мужской

Стаж: 1 год 1 месяц

Сообщений: 36

Карма: 25

[+]

Провайдер: UzOnline UzOnline

Наличие запрета:



Награды: Нет

[Профиль] ЛС

Создавать темы 15-Фев-2022 06:01

Цитировать

Ambrella Akademiyasi / Академия «Амбрелла» / The Umbrella Academy
Год выпуска: 2019
Страна: США
Студия: Netflix, Dark Horse Entertainment
Жанр: фантастика, фэнтези, боевик, драма, комедия, приключения
Продолжительность: ~ 00:55:00
Перевод: Профессиональный (многоголосый закадровый) |LostFilm|
Субтитры: Rus (Netflix), Eng (SDH)-Режиссер: Эндрю Бернштейн, Питер Хор, Эллен Кёрас-В ролях: Эйдан Галлахер, Камерон Бриттон, Иден Кьюпид, Кэмерон Бродер, Том Хоппер, Дэвид Кастанеда, Роберт Шиэн, Эмми Рэвер-Лэмпман-Описание: Действие разворачивается в альтернативной вселенной. В середине 20-го века 43 женщины, которые до этого не были беременны, одновременно рожают младенцев, наделённых суперспособностями. Пришелец, скрывающийся под личиной сэра Реджинальда Харггривса, спасает семерых новорождённых и создаёт Академию «Амбрелла». Вместе они используют свои таланты для защиты Земли. Годы спустя, после распада Академии, ученики встречаются на похоронах Харггривса. Им предстоит вновь объединиться ради защиты человечества и выступить против одного из бывших соратников по Академии.-Качество: WEBRip 1080p
Формат: MKV-Видео: AVC, 1920 x 960 (2.000) at 23.976 fps, ~8 138 kbps
Аудио: O'zbek Mix Tv
Аудио: Rus: AC-3, 48 kHz, 2 ch, 384 kbps
Аудио: Eng: E-AC-3, 48 kHz, 6 ch, 640 kbps-

The Umbrella Academy | Official Trailer | Netflix

https://www.youtube.com/watch?v=0DAmWHxeoKw
-

Скриншоты

-

Информация по видеофайлу

General
Unique ID : 243123032734839712818390892749246005639 (0xB6E7CAFAEEBA834B953D97F4499D8187)
Complete name : K:\M E D I A S E R I A L\SERIAL\AMBRELLA AKADEMIYASI\The.Umbrella.Academy.S01.1080p\The.Umbrella.Academy.S01E01.1080p.TVShows (UZB_RUS_ENG).mkv
Format : Matroska
Format version : Version 4
File size : 2.37 GiB
Duration : 59 min 18 s
Overall bit rate mode : Variable
Overall bit rate : 5 732 kb/s
Encoded date : UTC 2021-08-14 11:40:32
Writing application : mkvmerge v9.9.0 ('Pick Up') 32bit
Writing library : libebml v1.3.4 + libmatroska v1.4.5
Video
ID : 1
Format : AVC
Format/Info : Advanced Video Codec
Format profile : Main@L4
Format settings : CABAC / 3 Ref Frames
Format settings, CABAC : Yes
Format settings, Reference : 3 frames
Codec ID : V_MPEG4/ISO/AVC
Duration : 59 min 17 s
Bit rate mode : Variable
Bit rate : 4 640 kb/s
Maximum bit rate : 6 960 kb/s
Width : 1 920 pixels
Height : 1 080 pixels
Display aspect ratio : 16:9
Frame rate mode : Constant
Frame rate : 23.976 (24000/1001) FPS
Color space : YUV
Chroma subsampling : 4:2:0
Bit depth : 8 bits
Scan type : Progressive
Bits/(Pixel*Frame) : 0.093
Stream size : 1.87 GiB (79%)
Writing library : x264 core 148 r2715 7e75228
Encoding settings : cabac=1 / ref=3 / deblock=1:0:0 / analyse=0x1:0x111 / me=umh / subme=10 / psy=1 / psy_rd=1.00:0.00 / mixed_ref=1 / me_range=24 / chroma_me=1 / trellis=2 / 8x8dct=0 / cqm=0 / deadzone=21,11 / fast_pskip=1 / chroma_qp_offset=-2 / threads=8 / lookahead_threads=1 / sliced_threads=0 / nr=0 / decimate=1 / interlaced=0 / bluray_compat=0 / stitchable=1 / constrained_intra=0 / bframes=2 / b_pyramid=0 / b_adapt=2 / b_bias=0 / direct=3 / weightb=1 / open_gop=0 / weightp=2 / keyint=48 / keyint_min=25 / scenecut=0 / intra_refresh=0 / rc_lookahead=48 / rc=2pass / mbtree=1 / bitrate=4640 / ratetol=1.0 / qcomp=0.50 / qpmin=6 / qpmax=51 / qpstep=4 / cplxblur=20.0 / qblur=0.5 / vbv_maxrate=6960 / vbv_bufsize=9280 / nal_hrd=vbr / filler=0 / ip_ratio=1.40 / aq=1:1.00
Default : Yes
Forced : No
Audio #1
ID : 2
Format : AAC LC
Format/Info : Advanced Audio Codec Low Complexity
Codec ID : A_AAC-2
Duration : 59 min 18 s
Bit rate : 192 kb/s
Channel(s) : 2 channels
Channel layout : L R
Sampling rate : 48.0 kHz
Frame rate : 46.875 FPS (1024 SPF)
Compression mode : Lossy
Stream size : 80.6 MiB (3%)
Title : 901574707
Language : Uzbek
Default : Yes
Forced : No
Audio #2
ID : 3
Format : AC-3
Format/Info : Audio Coding 3
Commercial name : Dolby Digital
Codec ID : A_AC3
Duration : 59 min 18 s
Bit rate mode : Constant
Bit rate : 384 kb/s
Channel(s) : 6 channels
Channel layout : L R C LFE Ls Rs
Sampling rate : 48.0 kHz
Frame rate : 31.250 FPS (1536 SPF)
Compression mode : Lossy
Stream size : 163 MiB (7%)
Title : TVShows
Language : Russian
Service kind : Complete Main
Default : No
Forced : Yes
Audio #3
ID : 4
Format : E-AC-3
Format/Info : Enhanced AC-3
Commercial name : Dolby Digital Plus
Codec ID : A_EAC3
Duration : 59 min 18 s
Bit rate mode : Constant
Bit rate : 640 kb/s
Channel(s) : 6 channels
Channel layout : L R C LFE Ls Rs
Sampling rate : 48.0 kHz
Frame rate : 31.250 FPS (1536 SPF)
Compression mode : Lossy
Stream size : 271 MiB (11%)
Title : Original
Language : English
Service kind : Complete Main
Default : No
Forced : No
Text
ID : 5
Format : UTF-8
Codec ID : S_TEXT/UTF8
Codec ID/Info : UTF-8 Plain Text
Duration : 57 min 4 s
Bit rate : 57 b/s
Count of elements : 774
Stream size : 24.2 KiB (0%)
Title : English
Language : English
Default : No
Forced : No
Показать сообщения:    

Текущее время: 10-Авг 16:23

Часовой пояс: UTC - 5



Вы не можете начинать темы
Вы не можете отвечать на сообщения
Вы не можете редактировать свои сообщения
Вы не можете удалять свои сообщения
Вы не можете голосовать в опросах
Вы не можете прикреплять файлы к сообщениям
Вы не можете скачивать файлы