Регистрация ·
Имя: Пароль:  
· Забыли пароль? · Вопросы от гостей
Уважаемые гости сайта! Добро Пожаловать на наш торрент трекер,где Вы можете бесплатно скачать любой Софт,Фильмы,Музыку и многое другое! А так же постоянно ведется набор модераторов и релизеров. Зарегистрируйтесь сейчас, чтобы получить доступ ко всем функциям. После регистрации или входа на сайт вы сможете создавать темы, отвечать на сообщения и скачивать файлы.

Последний богатырь: Посланник Тьмы (Дмитрий Дьяченко) [2021, Приключения, комедия, фэнтези, WEB-DLRip]

Статистика раздачи
Качаю: [ 1 ]
Скачал: [ 2 ]
Сегодня идет свободное скачивание без начисления Download
 
     
 
 
Автор Сообщение

kat222000 ®

Не в сети

6582

Пол: Мужской

Стаж: 7 месяцев 10 дней

Сообщений: 9

Карма: 0

[+]

Провайдер: ISTV ISTV

Наличие запрета:



Награды: Нет

[Профиль] ЛС

Создавать темы 17-Фев-2022 01:58

Цитировать

Последний богатырь: Посланник Тьмы --Год выпуска: 2021
Страна: Россия
Жанр: Приключения, комедия, фэнтези
Продолжительность: 01:47:11
Субтитры: нет--Режиссер: Дмитрий Дьяченко--В ролях: Виктор Хориняк, Мила Сивацкая, Елена Яковлева, Константин Лавроненко, Тимофей Трибунцев, Елена Валюшкина, Анка Бессонова, Филипп Киркоров, Сергей Бурунов, Гарик Харламов, Юрий Цурило, Владислав Ветров, Евгений Дятлов, Екатерина Вилкова, Кирилл Зайцев (II), Анна Гуляренко-Описание: Иван наконец обрел силушку богатырскую, злой чародей Роголеб повержен, и теперь все Белогорье готовится к пиру на весь мир: Иван и Василиса собираются праздновать свадьбу, решая типичные для почти любой пары молодоженов проблемы. В каком платье пойти под венец невесте? Кольца - простые или волшебные? Свадебное путешествие - на куриных ногах или в ступе? В самый разгар приготовлений к празднику зло снова напоминает о себе: Василиса похищена, и в пылу погони Иван и его друзья оказываются в современной Москве. Для жителей Белогорья это - волшебный мир, в котором люди перемещаются на странных колесницах, разговаривают с плоскими дощечками и не в состоянии отличить настоящую магию от дешевой детской игрушки. Но, как выясняется, и в этом мире, бок о бок с обычными людьми, неплохо устроились герои старых сказок, и с их помощью у Ивана есть шанс окончательно победить древнюю Тьму.-- -Качество: WEB-DLRip
Формат: AVI
Видео: 720x304 (2.35:1), 24 fps, XviD build 73 ~1 628 kbps avg, 0.310 bit/pixel
Аудио: 48 kHz, AC3 Dolby Digital, 2/0 (L,R) ch, ~192 kbps--

〤 ОтчетМедиаИнфо 〤

General
Complete name : G:\torent\Poslednij.Bogatyr.Poslannik.Tmy.2021.WEB-DLRip.25Kuzmich.avi
Format : AVI
Format/Info : Audio Video Interleave
File size : 1.37 GiB
Duration : 1 h 47 min
Overall bit rate : 1 830 kb/s
Writing application : VirtualDubMod 1.5.10.3 | www.virtualdub-fr.org || (build 2550/release)
Writing library : VirtualDubMod build 2550/release
Video
ID : 0
Format : MPEG-4 Visual
Format profile : Advanced Simple@L5
Format settings : BVOP1
Format settings, BVOP : 1
Format settings, QPel : No
Format settings, GMC : No warppoints
Format settings, Matrix : Default (MPEG)
Codec ID : XVID
Codec ID/Hint : XviD
Duration : 1 h 47 min
Bit rate : 1 628 kb/s
Width : 720 pixels
Height : 304 pixels
Display aspect ratio : 2.35:1
Frame rate : 24.000 FPS
Color space : YUV
Chroma subsampling : 4:2:0
Bit depth : 8 bits
Scan type : Progressive
Compression mode : Lossy
Bits/(Pixel*Frame) : 0.310
Stream size : 1.22 GiB (89%)
Writing library : XviD 73
Audio
ID : 1
Format : AC-3
Format/Info : Audio Coding 3
Commercial name : Dolby Digital
Codec ID : 2000
Duration : 1 h 47 min
Bit rate mode : Constant
Bit rate : 192 kb/s
Channel(s) : 2 channels
Channel layout : L R
Sampling rate : 48.0 kHz
Frame rate : 31.250 FPS (1536 SPF)
Compression mode : Lossy
Stream size : 147 MiB (10%)
Alignment : Split across interleaves
Interleave, duration : 42 ms (1.00 video frame)
Interleave, preload duration : 500 ms
Service kind : Complete Main
-

_________________
Показать сообщения:    

Текущее время: 25-Июн 14:12

Часовой пояс: UTC - 5



Вы не можете начинать темы
Вы не можете отвечать на сообщения
Вы не можете редактировать свои сообщения
Вы не можете удалять свои сообщения
Вы не можете голосовать в опросах
Вы не можете прикреплять файлы к сообщениям
Вы не можете скачивать файлы