Регистрация ·
Имя: Пароль:  
· Забыли пароль? · Вопросы от гостей
Уважаемые гости сайта! Добро Пожаловать на наш торрент трекер,где Вы можете бесплатно скачать любой Софт,Фильмы,Музыку и многое другое! А так же постоянно ведется набор модераторов и релизеров. Зарегистрируйтесь сейчас, чтобы получить доступ ко всем функциям. После регистрации или входа на сайт вы сможете создавать темы, отвечать на сообщения и скачивать файлы.

Последний богатырь: Посланник Тьмы (Дмитрий Дьяченко) [2021, Приключения, комедия, фэнтези, WEB-DL 1080p]

Статистика раздачи
Качаю: [ 2 ]
Скачал: [ 1 ]
Сегодня идет свободное скачивание без начисления Download
 
     
 
 
Автор Сообщение

narov2022 ®

Не в сети

6690

Пол: Мужской

Стаж: 5 месяцев 22 дня

Сообщений: 11

Карма: 0

[+]

Провайдер: Gals-Telecom Gals-Telecom

Наличие запрета:



Награды: Нет

[Профиль] ЛС

Создавать темы 17-Фев-2022 02:20

Цитировать

Последний богатырь: Посланник Тьмы-- Год выпуска: 2021
Страна: Россия
Жанр: Приключения, комедия, фэнтези
Продолжительность: 01:47:11
Cубтитры: нет
Перевод: Не требуется-Режиссер: Дмитрий Дьяченко-В ролях: Виктор Хориняк, Мила Сивацкая, Екатерина Вилкова, Елена Яковлева, Константин Лавроненко, Евгений Дятлов, Тимофей Трибунцев, Алеся Лукьянова, Сергей Бурунов, Филипп Киркоров-Описание: Иван наконец обрел силушку богатырскую, злой чародей Роголеб повержен, и теперь все Белогорье готовится к пиру на весь мир: Иван и Василиса собираются праздновать свадьбу, решая типичные для почти любой пары молодоженов проблемы. В каком платье пойти под венец невесте? Кольца — простые или волшебные? Свадебное путешествие — на куриных ногах или в ступе? В самый разгар приготовлений к празднику зло снова напоминает о себе: Василиса похищена, и в пылу погони Иван и его друзья оказываются в современной Москве. Для жителей Белогорья это — волшебный мир, в котором люди перемещаются на странных колесницах, разговаривают с плоскими дощечками и не в состоянии отличить настоящую магию от дешевой детской игрушки. Но, как выясняется, и в этом мире, бок о бок с обычными людьми, неплохо устроились герои старых сказок, и с их помощью у Ивана есть шанс окончательно победить древнюю Тьму.-Качество видео: WEB-DL 1080p
Формат видео: MKV-Видео: MPEG-4 AVC, 4995 Кбит/с, 1920x800
Аудио: AC3, 2 ch, 192 Кбит/с-

MediaInfo

General
Unique ID : 96009180185899658977335671767330747791 (0x483AB20CA7D67CC425E7EA78BBC4758F)
Complete name : D:\Русские фильмы\Poslednij.Bogatyr.Poslannik.Tmy.2021.WEB-DL.1080.25Kuzmich.mkv
Format : Matroska
Format version : Version 4
File size : 3.88 GiB
Duration : 1 h 47 min
Overall bit rate mode : Variable
Overall bit rate : 5 184 kb/s
Encoded date : UTC 2022-02-16 23:31:28
Writing application : mkvmerge v51.0.0 ('I Wish') 64-bit
Writing library : libebml v1.4.0 + libmatroska v1.6.2
Video
ID : 1
Format : AVC
Format/Info : Advanced Video Codec
Format profile : High@L4.1
Format settings : CABAC / 3 Ref Frames
Format settings, CABAC : Yes
Format settings, Reference fra : 3 frames
Codec ID : V_MPEG4/ISO/AVC
Duration : 1 h 47 min
Bit rate mode : Variable
Bit rate : 4 990 kb/s
Maximum bit rate : 40.0 Mb/s
Width : 1 920 pixels
Height : 800 pixels
Display aspect ratio : 2.40:1
Frame rate mode : Constant
Frame rate : 24.000 FPS
Color space : YUV
Chroma subsampling : 4:2:0
Bit depth : 8 bits
Scan type : Progressive
Bits/(Pixel*Frame) : 0.135
Stream size : 3.74 GiB (96%)
Language : Russian
Default : Yes
Forced : No
Color range : Limited
Color primaries : BT.709
Transfer characteristics : BT.709
Matrix coefficients : BT.709
Audio
ID : 2
Format : AC-3
Format/Info : Audio Coding 3
Commercial name : Dolby Digital
Codec ID : A_AC3
Duration : 1 h 47 min
Bit rate mode : Constant
Bit rate : 192 kb/s
Channel(s) : 2 channels
Channel layout : L R
Sampling rate : 48.0 kHz
Frame rate : 31.250 FPS (1536 SPF)
Compression mode : Lossy
Stream size : 147 MiB (4%)
Language : Russian
Service kind : Complete Main
Default : Yes
Forced : No
-
Показать сообщения:    

Текущее время: 10-Авг 16:13

Часовой пояс: UTC - 5



Вы не можете начинать темы
Вы не можете отвечать на сообщения
Вы не можете редактировать свои сообщения
Вы не можете удалять свои сообщения
Вы не можете голосовать в опросах
Вы не можете прикреплять файлы к сообщениям
Вы не можете скачивать файлы