Регистрация ·
Имя: Пароль:  
· Забыли пароль? · Вопросы от гостей
Уважаемые гости сайта! Добро Пожаловать на наш торрент трекер,где Вы можете бесплатно скачать любой Софт,Фильмы,Музыку и многое другое! А так же постоянно ведется набор модераторов и релизеров. Зарегистрируйтесь сейчас, чтобы получить доступ ко всем функциям. После регистрации или входа на сайт вы сможете создавать темы, отвечать на сообщения и скачивать файлы.

Вальдо / Last Looks (Тим Киркби / Tim Kirkby) [2021, Триллер, боевик, детектив, BDRip-AVC]

Статистика раздачи
Нет
Сегодня идет свободное скачивание без начисления Download
 
     
 
 
Автор Сообщение

narov2022 ®

Не в сети

6690

Пол: Мужской

Стаж: 5 месяцев 26 дней

Сообщений: 11

Карма: 0

[+]

Провайдер: Gals-Telecom Gals-Telecom

Наличие запрета:



Награды: Нет

[Профиль] ЛС

Создавать темы 17-Фев-2022 07:55

Цитировать

Вальдо | Last Looks-- Год выпуска: 2021
Страна: США
Жанр: Триллер, боевик, детектив
Продолжительность: 01:50:51-Cубтитры: Русские (full), английские (full)
Перевод: Дублированный | Кинопоиск HD-Режиссер: Тим Киркби / Tim Kirkby-В ролях: Чарли Ханнэм, Мэл Гибсон, Морена Баккарин, Клэнси Браун, Люси Фрай, Руперт Френд, Доминик Монахэн, Метод Мэн, Пол Бен-Виктор, Джейкоб Скипио, Софи Фату, Канди ВандиЗанди-Описание: Отошедший от дел полицейский Чарли Уолдо, ведущий затворнический образ жизни посреди леса, вынужден оставить свою спокойную жизнь. Частный детектив обращается к нему за помощью в расследовании убийства супруги эксцентричной звезды (Мэл Гибсон).-Качество видео: BDRip-AVC
Формат видео: MKV-Видео: 1024x428 at 24.000 fps, x264@L4.1, ~1619 kbps
Аудио: AC3, 6 ch, ~448 kbps - | Русский-

MediaInfo

General
Unique ID : 98401550662757696341936316573574367312 (0x4A0773054BABB2982E5B82763D6A0850)
Complete name : D:\Зарубежные кино\Last.Look.2021.DUB.BDRip.x264.mkv
Format : Matroska
Format version : Version 4
File size : 1.60 GiB
Duration : 1 h 50 min
Overall bit rate : 2 068 kb/s
Encoded date : UTC 2022-02-17 06:23:36
Writing application : mkvmerge v65.0.0 ('Too Much') 64-bit
Writing library : libebml v1.4.2 + libmatroska v1.6.4
Cover : Yes
Attachments : cover.jpg / cover 2.jpg
Video
ID : 1
Format : AVC
Format/Info : Advanced Video Codec
Format profile : High@L4.1
Format settings : CABAC / 12 Ref Frames
Format settings, CABAC : Yes
Format settings, Reference fra : 12 frames
Codec ID : V_MPEG4/ISO/AVC
Duration : 1 h 50 min
Bit rate : 1 619 kb/s
Width : 1 024 pixels
Height : 428 pixels
Display aspect ratio : 2.40:1
Frame rate mode : Constant
Frame rate : 24.000 FPS
Color space : YUV
Chroma subsampling : 4:2:0
Bit depth : 8 bits
Scan type : Progressive
Bits/(Pixel*Frame) : 0.154
Stream size : 1.25 GiB (78%)
Title : -=DoMiNo=-
Writing library : x264 core 164 r3086 5585eaf
Encoding settings : cabac=1 / ref=12 / deblock=1:-3:-2 / analyse=0x3:0x133 / me=umh / subme=10 / psy=1 / psy_rd=1.00:0.00 / mixed_ref=1 / me_range=32 / chroma_me=1 / trellis=2 / 8x8dct=1 / cqm=0 / deadzone=21,11 / fast_pskip=0 / chroma_qp_offset=-2 / threads=13 / lookahead_threads=3 / sliced_threads=0 / nr=0 / decimate=1 / interlaced=0 / bluray_compat=0 / constrained_intra=0 / bframes=10 / b_pyramid=2 / b_adapt=2 / b_bias=0 / direct=1 / weightb=1 / open_gop=0 / weightp=2 / keyint=250 / keyint_min=24 / scenecut=40 / intra_refresh=0 / rc_lookahead=60 / rc=crf / mbtree=0 / crf=18.0 / qcomp=0.60 / qpmin=0 / qpmax=69 / qpstep=4 / vbv_maxrate=50000 / vbv_bufsize=62500 / crf_max=0.0 / nal_hrd=none / filler=0 / ip_ratio=1.30 / pb_ratio=1.20 / aq=1:1.00
Language : English
Default : Yes
Forced : No
Audio
ID : 2
Format : AC-3
Format/Info : Audio Coding 3
Commercial name : Dolby Digital
Codec ID : A_AC3
Duration : 1 h 50 min
Bit rate mode : Constant
Bit rate : 448 kb/s
Channel(s) : 6 channels
Channel layout : L R C LFE Ls Rs
Sampling rate : 48.0 kHz
Frame rate : 31.250 FPS (1536 SPF)
Compression mode : Lossy
Stream size : 355 MiB (22%)
Title : DUB
Language : Russian
Service kind : Complete Main
Default : No
Forced : No
Text #1
ID : 3
Format : UTF-8
Codec ID : S_TEXT/UTF8
Codec ID/Info : UTF-8 Plain Text
Duration : 1 h 44 min
Bit rate : 120 b/s
Count of elements : 1572
Stream size : 92.8 KiB (0%)
Language : Russian
Default : No
Forced : No
Text #2
ID : 4
Format : UTF-8
Codec ID : S_TEXT/UTF8
Codec ID/Info : UTF-8 Plain Text
Duration : 1 h 49 min
Bit rate : 73 b/s
Count of elements : 1928
Stream size : 58.6 KiB (0%)
Language : English
Default : No
Forced : No
Menu
00:00:00.000 : en:Chapter 01
00:08:09.625 : en:Chapter 02
00:12:31.125 : en:Chapter 03
00:17:10.208 : en:Chapter 04
00:22:33.208 : en:Chapter 05
00:27:22.750 : en:Chapter 06
00:32:39.458 : en:Chapter 07
00:39:03.125 : en:Chapter 08
00:43:55.500 : en:Chapter 09
00:47:52.583 : en:Chapter 10
00:55:28.000 : en:Chapter 11
01:01:40.708 : en:Chapter 12
01:07:06.208 : en:Chapter 13
01:10:54.833 : en:Chapter 14
01:17:03.167 : en:Chapter 15
01:20:51.042 : en:Chapter 16
01:26:18.208 : en:Chapter 17
01:34:38.833 : en:Chapter 18
01:40:46.292 : en:Chapter 19
01:45:55.292 : en:Chapter 20
-
Показать сообщения:    

Текущее время: 15-Авг 13:38

Часовой пояс: UTC - 5



Вы не можете начинать темы
Вы не можете отвечать на сообщения
Вы не можете редактировать свои сообщения
Вы не можете удалять свои сообщения
Вы не можете голосовать в опросах
Вы не можете прикреплять файлы к сообщениям
Вы не можете скачивать файлы