Регистрация ·
Имя: Пароль:  
· Забыли пароль? · Вопросы от гостей
Уважаемые гости сайта! Добро Пожаловать на наш торрент трекер,где Вы можете бесплатно скачать любой Софт,Фильмы,Музыку и многое другое! А так же постоянно ведется набор модераторов и релизеров. Зарегистрируйтесь сейчас, чтобы получить доступ ко всем функциям. После регистрации или входа на сайт вы сможете создавать темы, отвечать на сообщения и скачивать файлы.

Дэдпул / Deadpool (2016) BDRip-HEVC 1080p

Статистика раздачи
Скачал: [ 1 ]
Сегодня идет свободное скачивание без начисления Download
 
     
 
 
Автор Сообщение

BestFriend ®

Не в сети

6493

Пол: Мужской

Стаж: 1 год 1 месяц

Сообщений: 36

Карма: 25

[+]

Провайдер: UzOnline UzOnline

Наличие запрета:



Награды: Нет

[Профиль] ЛС

Создавать темы 18-Фев-2022 06:00

Цитировать

Dedpul / Дэдпул / Deadpool (2016)
Название: Дэдпул
Оригинальное название: Deadpool
Год производства: 2016
Жанр: фантастика, боевик, комедия, приключения
Режиссёр: Тим Миллер
В ролях: Райан Рейнольдс, Морена Баккарин, Эд Скрейн, ТиДжей Миллер, Джина Карано, Брианна Хилдебранд, Стефан Капичич, Лесли Аггамс, Джед Риис, Каран Сони
О фильме: Уэйд Уилсон — наёмник. Будучи побочным продуктом программы вооружённых сил под названием «Оружие X», Уилсон приобрёл невероятную силу, проворство и способность к исцелению. Но страшной ценой: его клеточная структура постоянно меняется, а здравомыслие сомнительно. Всё, чего хочет Уилсон, — держаться на плаву в социальной выгребной яме. Но течение в ней слишком быстрое.
Страна: США
Студия: 20th Century Fox Film Corporation, Donners' Company, Kinberg Genre, Marvel Entertainment, TSG Entertainment
Продолжительность: 01:48:06
Перевод: дублированный
Качество: BDRip-HEVC 1080p
Кодек: HEVC (x265)
Видео: 1920x806 (2.40:1), 5669 Кбит/сек, HEVC (Main10@L.4.1@High) 10 бит
Звук:
Аудио1: O'zbek (Anvar Muhammedov studiyasi)
Аудио2: AC3, 6 ch, 640 Kbps - Русский, DUB
Аудио3: AC3, 6 ch, 448 Kbps - Украинский, DUB
Аудио4: AC3, 6 ch, 640 Kbps - English, Original
Субтитры: Русские полные (SRT), Украинские полные (SRT), English full (SRT, SDH)
Навигация по главам: Есть

Скриншоты

Информация по видеофайлу

General
Unique ID : 220883385441311320283939722374584509685 (0xA62C97B6334269BE84B920982724A4F5)
Complete name : D:\MEDIA\VIDEO\TARJIMA\DEDPOOL\DEADPOOL-1.2016. (UZB).mkv
Format : Matroska
Format version : Version 4
File size : 5.73 GiB
Duration : 1 h 48 min
Overall bit rate : 7 594 kb/s
Movie name : 08.Дэдпул.Deadpool.2016.BDRip-HEVC.1080p
Encoded date : UTC 2022-01-08 13:52:21
Writing application : mkvmerge v9.9.0 ('Pick Up') 32bit
Writing library : libebml v1.3.4 + libmatroska v1.4.5
Video
ID : 1
Format : HEVC
Format/Info : High Efficiency Video Coding
Format profile : Main 10@L4.1@High
Codec ID : V_MPEGH/ISO/HEVC
Duration : 1 h 48 min
Bit rate : 5 669 kb/s
Width : 1 920 pixels
Height : 806 pixels
Display aspect ratio : 2.40:1
Frame rate mode : Constant
Frame rate : 23.976 (24000/1001) FPS
Color space : YUV
Chroma subsampling : 4:2:0
Bit depth : 10 bits
Bits/(Pixel*Frame) : 0.153
Stream size : 4.28 GiB (75%)
Title : Deadpool / Rip by OldGamer
Writing library : x265 3.5+19-8003e4382:[Windows][GCC 11.2.0][64 bit] 10bit
Encoding settings : cpuid=1111039 / frame-threads=3 / numa-pools=8 / wpp / no-pmode / no-pme / no-psnr / no-ssim / log-level=2 / input-csp=1 / input-res=1920x806 / interlace=0 / total-frames=155513 / level-idc=41 / high-tier=1 / uhd-bd=0 / ref=5 / no-allow-non-conformance / no-repeat-headers / annexb / no-aud / no-eob / no-eos / no-hrd / info / hash=0 / no-temporal-layers / open-gop / min-keyint=23 / keyint=240 / gop-lookahead=0 / bframes=13 / b-adapt=2 / b-pyramid / bframe-bias=0 / rc-lookahead=40 / lookahead-slices=0 / scenecut=40 / no-hist-scenecut / radl=0 / no-splice / no-intra-refresh / ctu=32 / min-cu-size=8 / rect / amp / max-tu-size=32 / tu-inter-depth=4 / tu-intra-depth=4 / limit-tu=1 / rdoq-level=2 / dynamic-rd=0.00 / no-ssim-rd / signhide / no-tskip / nr-intra=0 / nr-inter=0 / no-constrained-intra / no-strong-intra-smoothing / max-merge=5 / limit-refs=3 / no-limit-modes / me=3 / subme=7 / merange=57 / temporal-mvp / no-frame-dup / no-hme / weightp / weightb / no-analyze-src-pics / deblock=-3:-3 / no-sao / no-sao-non-deblock / rd=6 / selective-sao=0 / no-early-skip / no-rskip / no-fast-intra / no-tskip-fast / no-cu-lossless / b-intra / no-splitrd-skip / rdpenalty=0 / psy-rd=2.00 / psy-rdoq=1.00 / no-rd-refine / no-lossless / cbqpoffs=0 / crqpoffs=0 / rc=crf / crf=20.0 / qcomp=0.75 / qpstep=4 / stats-write=0 / stats-read=0 / vbv-maxrate=50000 / vbv-bufsize=50000 / vbv-init=0.9 / min-vbv-fullness=50.0 / max-vbv-fullness=80.0 / crf-max=0.0 / crf-min=0.0 / ipratio=1.40 / pbratio=1.30 / aq-mode=1 / aq-strength=1.00 / no-cutree / zone-count=1 / zones: / start-frame=147436 / end-frame=153885 / qp=36 / no-strict-cbr / qg-size=32 / no-rc-grain / qpmax=69 / qpmin=0 / no-const-vbv / sar=1 / overscan=0 / videoformat=5 / range=0 / colorprim=2 / transfer=2 / colormatrix=2 / chromaloc=0 / display-window=0 / cll=0,0 / min-luma=0 / max-luma=1023 / log2-max-poc-lsb=8 / vui-timing-info / vui-hrd-info / slices=1 / no-opt-qp-pps / no-opt-ref-list-length-pps / no-multi-pass-opt-rps / scenecut-bias=0.00 / hist-threshold=0.03 / no-opt-cu-delta-qp / no-aq-motion / no-hdr10 / no-hdr10-opt / no-dhdr10-opt / no-idr-recovery-sei / analysis-reuse-level=0 / analysis-save-reuse-level=0 / analysis-load-reuse-level=0 / scale-factor=0 / refine-intra=0 / refine-inter=0 / refine-mv=1 / refine-ctu-distortion=0 / no-limit-sao / ctu-info=0 / no-lowpass-dct / refine-analysis-type=0 / copy-pic=1 / max-ausize-factor=1.0 / no-dynamic-refine / no-single-sei / no-hevc-aq / no-svt / no-field / qp-adaptation-range=1.00 / scenecut-aware-qp=0conformance-window-offsets / right=0 / bottom=0 / decoder-max-rate=0 / no-vbv-live-multi-pass
Language : English
Default : Yes
Forced : No
Audio #1
ID : 2
Format : AAC LC
Format/Info : Advanced Audio Codec Low Complexity
Codec ID : A_AAC-2
Duration : 1 h 48 min
Bit rate : 192 kb/s
Channel(s) : 2 channels
Channel layout : L R
Sampling rate : 44.1 kHz
Frame rate : 43.066 FPS (1024 SPF)
Compression mode : Lossy
Stream size : 150 MiB (3%)
Title : 901574707
Language : Uzbek
Default : Yes
Forced : No
Audio #2
ID : 3
Format : AC-3
Format/Info : Audio Coding 3
Commercial name : Dolby Digital
Codec ID : A_AC3
Duration : 1 h 48 min
Bit rate mode : Constant
Bit rate : 640 kb/s
Channel(s) : 6 channels
Channel layout : L R C LFE Ls Rs
Sampling rate : 48.0 kHz
Frame rate : 31.250 FPS (1536 SPF)
Compression mode : Lossy
Stream size : 495 MiB (8%)
Title : DUB
Language : Russian
Service kind : Complete Main
Default : No
Forced : No
Audio #3
ID : 4
Format : AC-3
Format/Info : Audio Coding 3
Commercial name : Dolby Digital
Codec ID : A_AC3
Duration : 1 h 48 min
Bit rate mode : Constant
Bit rate : 448 kb/s
Channel(s) : 6 channels
Channel layout : L R C LFE Ls Rs
Sampling rate : 48.0 kHz
Frame rate : 31.250 FPS (1536 SPF)
Compression mode : Lossy
Stream size : 346 MiB (6%)
Title : DUB
Language : Ukrainian
Service kind : Complete Main
Default : No
Forced : No
Audio #4
ID : 5
Format : AC-3
Format/Info : Audio Coding 3
Commercial name : Dolby Digital
Codec ID : A_AC3
Duration : 1 h 48 min
Bit rate mode : Constant
Bit rate : 640 kb/s
Channel(s) : 6 channels
Channel layout : L R C LFE Ls Rs
Sampling rate : 48.0 kHz
Frame rate : 31.250 FPS (1536 SPF)
Compression mode : Lossy
Stream size : 495 MiB (8%)
Language : English
Service kind : Complete Main
Default : No
Forced : No
Text #1
ID : 6
Format : UTF-8
Codec ID : S_TEXT/UTF8
Codec ID/Info : UTF-8 Plain Text
Duration : 1 h 47 min
Bit rate : 175 b/s
Count of elements : 2253
Stream size : 139 KiB (0%)
Title : с цензурой
Language : Russian
Default : No
Forced : No
Text #2
ID : 7
Format : UTF-8
Codec ID : S_TEXT/UTF8
Codec ID/Info : UTF-8 Plain Text
Duration : 1 h 47 min
Bit rate : 106 b/s
Count of elements : 1015
Stream size : 83.6 KiB (0%)
Title : без цензуры
Language : Russian
Default : No
Forced : No
Text #3
ID : 8
Format : UTF-8
Codec ID : S_TEXT/UTF8
Codec ID/Info : UTF-8 Plain Text
Duration : 1 h 47 min
Bit rate : 92 b/s
Count of elements : 1420
Stream size : 73.0 KiB (0%)
Language : Ukrainian
Default : No
Forced : No
Text #4
ID : 9
Format : UTF-8
Codec ID : S_TEXT/UTF8
Codec ID/Info : UTF-8 Plain Text
Duration : 1 h 47 min
Bit rate : 58 b/s
Count of elements : 1024
Stream size : 46.2 KiB (0%)
Language : English
Default : No
Forced : No
Text #5
ID : 10
Format : UTF-8
Codec ID : S_TEXT/UTF8
Codec ID/Info : UTF-8 Plain Text
Duration : 1 h 47 min
Bit rate : 64 b/s
Count of elements : 1852
Stream size : 50.4 KiB (0%)
Title : SDH
Language : English
Default : No
Forced : No
Menu
00:00:00.000 : en:Chapter 01
00:03:04.726 : en:Chapter 02
00:05:53.019 : en:Chapter 03
00:09:30.820 : en:Chapter 04
00:13:19.089 : en:Chapter 05
00:16:48.716 : en:Chapter 06
00:20:12.544 : en:Chapter 07
00:22:06.408 : en:Chapter 08
00:27:09.628 : en:Chapter 09
00:31:58.958 : en:Chapter 10
00:36:51.709 : en:Chapter 11
00:41:06.172 : en:Chapter 12
00:44:45.766 : en:Chapter 13
00:46:56.605 : en:Chapter 14
00:50:10.966 : en:Chapter 15
00:53:18.028 : en:Chapter 16
00:55:33.038 : en:Chapter 17
00:59:07.752 : en:Chapter 18
01:03:05.239 : en:Chapter 19
01:07:06.439 : en:Chapter 20
01:09:15.568 : en:Chapter 21
01:12:29.720 : en:Chapter 22
01:16:46.393 : en:Chapter 23
01:20:43.713 : en:Chapter 24
01:25:53.398 : en:Chapter 25
01:31:03.791 : en:Chapter 26
01:34:46.972 : en:Chapter 27
01:39:52.736 : en:Chapter 28
Показать сообщения:    

Текущее время: 15-Авг 14:19

Часовой пояс: UTC - 5



Вы не можете начинать темы
Вы не можете отвечать на сообщения
Вы не можете редактировать свои сообщения
Вы не можете удалять свои сообщения
Вы не можете голосовать в опросах
Вы не можете прикреплять файлы к сообщениям
Вы не можете скачивать файлы