Регистрация ·
Имя: Пароль:  
· Забыли пароль? · Вопросы от гостей
Уважаемые гости сайта! Добро Пожаловать на наш торрент трекер,где Вы можете бесплатно скачать любой Софт,Фильмы,Музыку и многое другое! А так же постоянно ведется набор модераторов и релизеров. Зарегистрируйтесь сейчас, чтобы получить доступ ко всем функциям. После регистрации или входа на сайт вы сможете создавать темы, отвечать на сообщения и скачивать файлы.

Дэдпул 2 / Deadpool 2 (2018) BDRip-HEVC 1080p

Статистика раздачи
Скачал: [ 1 ]
Сегодня идет свободное скачивание без начисления Download
 
     
 
 
Автор Сообщение

BestFriend ®

Не в сети

6493

Пол: Мужской

Стаж: 1 год 1 месяц

Сообщений: 36

Карма: 25

[+]

Провайдер: UzOnline UzOnline

Наличие запрета:



Награды: Нет

[Профиль] ЛС

Создавать темы 18-Фев-2022 06:09

Цитировать

Dedpul /Дэдпул 2 / Deadpool 2 (2018)
Название: Дэдпул 2
Оригинальное название: Deadpool 2
Год производства: 2018
Жанр: фантастика, боевик, комедия, приключения
Режиссёр: Дэвид Литч
В ролях: Райан Рейнольдс, Джош Бролин, Морена Баккарин, Джулиан Деннисон, Зази Битц, ТиДжей Миллер, Лесли Аггамс, Каран Сони, Брианна Хилдебранд, Джек Кеси
О фильме: Единственный и неповторимый болтливый наёмник вернулся! Ещё более масштабный, ещё более разрушительный и даже ещё более голозадый чем прежде! Когда в его жизнь врывается суперсолдат с убийственной миссией, Дэдпул вынужден задуматься о дружбе, семье и о том, что на самом деле значит быть героем, попутно надирая 50 оттенков задниц. Потому что иногда, чтобы делать хорошие вещи, нужно использовать грязные приёмчики.
Страна: США, Канада
Студия: 20th Century Fox Film Corporation, Donners' Company, Kinberg Genre, Marvel Entertainment
Продолжительность: 02:13:59
Перевод: дублированный
Качество: BDRip-HEVC 1080p
Кодек: HEVC (x265)
Видео: 1920x806 (2.40:1), 6430 Кбит/сек, HEVC (Main10@L.4.1@High) 10 бит
Звук:
Аудио1: O'zbek (Anvar Muhammedov studiyasi)
Аудио2: AC3, 6 ch, 640 Kbps - Русский, DUB
Аудио3: AC3, 6 ch, 448 Kbps - Украинский, DUB
Аудио4: AC3, 6 ch, 640 Kbps - English, Original
Субтитры: Русские форсированные и полные (SRT), Украинские форсированные и полные (SRT), English forced and full (SRT, SDH)
Навигация по главам: Есть

Скриншоты

Информация по видеофайлу

General
Unique ID : 193833607407999543109163356877888131937 (0x91D2FEB008B8251D82A3969460179361)
Complete name : D:\MEDIA\VIDEO\TARJIMA\DEDPOOL\DEADPOOL-2.2018. (UZB).mkv
Format : Matroska
Format version : Version 4
File size : 7.10 GiB
Duration : 2 h 13 min
Overall bit rate : 7 586 kb/s
Movie name : Deadpool 2 (2018)
Encoded date : UTC 2022-02-13 20:01:29
Writing application : mkvmerge v9.9.0 ('Pick Up') 32bit
Writing library : libebml v1.3.4 + libmatroska v1.4.5
Attachments : poster .png
Video
ID : 1
Format : AVC
Format/Info : Advanced Video Codec
Format profile : High@L4.1
Format settings : CABAC / 12 Ref Frames
Format settings, CABAC : Yes
Format settings, Reference : 12 frames
Codec ID : V_MPEG4/ISO/AVC
Duration : 2 h 13 min
Bit rate : 6 045 kb/s
Width : 1 280 pixels
Height : 536 pixels
Display aspect ratio : 2.40:1
Frame rate mode : Constant
Frame rate : 23.976 (24000/1001) FPS
Color space : YUV
Chroma subsampling : 4:2:0
Bit depth : 8 bits
Scan type : Progressive
Bits/(Pixel*Frame) : 0.367
Stream size : 5.66 GiB (80%)
Writing library : x264 core 146 r2538 121396c
Encoding settings : cabac=1 / ref=12 / deblock=1:-3:-3 / analyse=0x3:0x133 / me=umh / subme=11 / psy=1 / psy_rd=1.00:0.00 / mixed_ref=1 / me_range=32 / chroma_me=1 / trellis=2 / 8x8dct=1 / cqm=0 / deadzone=21,11 / fast_pskip=0 / chroma_qp_offset=-2 / threads=12 / lookahead_threads=2 / sliced_threads=0 / nr=0 / decimate=0 / interlaced=0 / bluray_compat=0 / constrained_intra=0 / bframes=12 / b_pyramid=2 / b_adapt=2 / b_bias=0 / direct=3 / weightb=1 / open_gop=0 / weightp=2 / keyint=240 / keyint_min=23 / scenecut=40 / intra_refresh=0 / rc=2pass / mbtree=0 / bitrate=6045 / ratetol=1.0 / qcomp=0.60 / qpmin=0 / qpmax=69 / qpstep=4 / cplxblur=20.0 / qblur=0.5 / ip_ratio=1.40 / pb_ratio=1.30 / aq=3:0.80
Language : English
Default : Yes
Forced : No
Audio #1
ID : 2
Format : AAC LC
Format/Info : Advanced Audio Codec Low Complexity
Codec ID : A_AAC-2
Duration : 2 h 13 min
Bit rate : 192 kb/s
Channel(s) : 2 channels
Channel layout : L R
Sampling rate : 44.1 kHz
Frame rate : 43.066 FPS (1024 SPF)
Compression mode : Lossy
Stream size : 185 MiB (3%)
Title : @Best_4707
Language : Uzbek
Default : Yes
Forced : No
Audio #2
ID : 3
Format : AC-3
Format/Info : Audio Coding 3
Commercial name : Dolby Digital
Codec ID : A_AC3
Duration : 2 h 13 min
Bit rate mode : Constant
Bit rate : 448 kb/s
Channel(s) : 6 channels
Channel layout : L R C LFE Ls Rs
Sampling rate : 48.0 kHz
Frame rate : 31.250 FPS (1536 SPF)
Compression mode : Lossy
Stream size : 429 MiB (6%)
Title : Дублированный
Language : Russian
Service kind : Complete Main
Default : No
Forced : Yes
Audio #3
ID : 4
Format : AC-3
Format/Info : Audio Coding 3
Commercial name : Dolby Digital
Codec ID : A_AC3
Duration : 2 h 13 min
Bit rate mode : Constant
Bit rate : 448 kb/s
Channel(s) : 6 channels
Channel layout : L R C LFE Ls Rs
Sampling rate : 48.0 kHz
Frame rate : 31.250 FPS (1536 SPF)
Compression mode : Lossy
Stream size : 429 MiB (6%)
Title : Авторский Е.Гаевский
Language : Russian
Service kind : Complete Main
Default : No
Forced : No
Audio #4
ID : 5
Format : AC-3
Format/Info : Audio Coding 3
Commercial name : Dolby Digital
Codec ID : A_AC3
Duration : 2 h 13 min
Bit rate mode : Constant
Bit rate : 448 kb/s
Channel(s) : 6 channels
Channel layout : L R C LFE Ls Rs
Sampling rate : 48.0 kHz
Frame rate : 31.250 FPS (1536 SPF)
Compression mode : Lossy
Stream size : 429 MiB (6%)
Title : Оригинал
Language : English
Service kind : Complete Main
Default : No
Forced : No
Text #1
ID : 6
Format : UTF-8
Codec ID : S_TEXT/UTF8
Codec ID/Info : UTF-8 Plain Text
Duration : 2 h 10 min
Bit rate : 1 b/s
Count of elements : 29
Stream size : 1.17 KiB (0%)
Title : Forced
Language : Russian
Default : Yes
Forced : Yes
Text #2
ID : 7
Format : UTF-8
Codec ID : S_TEXT/UTF8
Codec ID/Info : UTF-8 Plain Text
Duration : 2 h 11 min
Bit rate : 78 b/s
Count of elements : 1538
Stream size : 75.8 KiB (0%)
Title : Blu-ray CEE
Language : Russian
Default : No
Forced : No
Text #3
ID : 8
Format : UTF-8
Codec ID : S_TEXT/UTF8
Codec ID/Info : UTF-8 Plain Text
Duration : 2 h 11 min
Bit rate : 108 b/s
Count of elements : 2104
Stream size : 104 KiB (0%)
Title : Focs
Language : Russian
Default : No
Forced : No
Text #4
ID : 9
Format : UTF-8
Codec ID : S_TEXT/UTF8
Codec ID/Info : UTF-8 Plain Text
Duration : 2 h 11 min
Bit rate : 113 b/s
Count of elements : 2161
Stream size : 109 KiB (0%)
Title : Ruf
Language : Russian
Default : No
Forced : No
Text #5
ID : 10
Format : UTF-8
Codec ID : S_TEXT/UTF8
Codec ID/Info : UTF-8 Plain Text
Duration : 2 h 11 min
Bit rate : 64 b/s
Count of elements : 2125
Stream size : 62.1 KiB (0%)
Title : Full
Language : English
Default : No
Forced : No
Text #6
ID : 11
Format : UTF-8
Codec ID : S_TEXT/UTF8
Codec ID/Info : UTF-8 Plain Text
Duration : 2 h 13 min
Bit rate : 94 b/s
Count of elements : 2426
Stream size : 92.2 KiB (0%)
Title : SDH
Language : English
Default : No
Forced : No
Text #7
ID : 12
Format : UTF-8
Codec ID : S_TEXT/UTF8
Codec ID/Info : UTF-8 Plain Text
Duration : 2 h 13 min
Bit rate : 92 b/s
Count of elements : 2426
Stream size : 89.9 KiB (0%)
Title : SDH-Colored
Language : English
Default : No
Forced : No
Menu
00:00:00.000 : :Chapter 01
00:02:31.693 : :Chapter 02
00:07:55.516 : :Chapter 03
00:10:46.228 : :Chapter 04
00:14:21.193 : :Chapter 05
00:17:42.978 : :Chapter 06
00:19:10.691 : :Chapter 07
00:24:14.369 : :Chapter 08
00:27:11.630 : :Chapter 09
00:37:17.360 : :Chapter 10
00:42:11.820 : :Chapter 11
00:44:40.427 : :Chapter 12
00:49:30.926 : :Chapter 13
00:52:20.470 : :Chapter 14
00:56:47.612 : :Chapter 15
01:01:00.281 : :Chapter 16
01:04:47.258 : :Chapter 17
01:07:22.997 : :Chapter 18
01:09:45.097 : :Chapter 19
01:11:46.010 : :Chapter 20
01:15:21.016 : :Chapter 21
01:19:19.212 : :Chapter 22
01:21:00.188 : :Chapter 23
01:24:50.001 : :Chapter 24
01:29:10.845 : :Chapter 25
01:32:30.419 : :Chapter 26
01:36:11.390 : :Chapter 27
01:38:18.851 : :Chapter 28
01:42:06.328 : :Chapter 29
01:44:18.710 : :Chapter 30
01:46:03.774 : :Chapter 31
01:48:06.730 : :Chapter 32
01:51:31.976 : :Chapter 33
01:55:05.398 : :Chapter 34
01:58:16.047 : :Chapter 35
02:02:04.317 : :Chapter 36
Показать сообщения:    

Текущее время: 10-Авг 14:55

Часовой пояс: UTC - 5



Вы не можете начинать темы
Вы не можете отвечать на сообщения
Вы не можете редактировать свои сообщения
Вы не можете удалять свои сообщения
Вы не можете голосовать в опросах
Вы не можете прикреплять файлы к сообщениям
Вы не можете скачивать файлы