Регистрация ·
Имя: Пароль:  
· Забыли пароль? · Вопросы от гостей
Уважаемые гости сайта! Добро Пожаловать на наш торрент трекер,где Вы можете бесплатно скачать любой Софт,Фильмы,Музыку и многое другое! А так же постоянно ведется набор модераторов и релизеров. Зарегистрируйтесь сейчас, чтобы получить доступ ко всем функциям. После регистрации или входа на сайт вы сможете создавать темы, отвечать на сообщения и скачивать файлы.

Техасская резня бензопилой / The Texas Chainsaw Massacre (Дэвид Блу Гарсиа) [2022, Ужасы, триллер, слэшер, WEB-DL 1080p]

Статистика раздачи
Нет
Сегодня идет свободное скачивание без начисления Download
 
     
 
 
Автор Сообщение

narov2022 ®

Не в сети

6690

Пол: Мужской

Стаж: 5 месяцев 26 дней

Сообщений: 11

Карма: 0

[+]

Провайдер: Gals-Telecom Gals-Telecom

Наличие запрета:



Награды: Нет

[Профиль] ЛС

Создавать темы 18-Фев-2022 06:16

Цитировать

Техасская резня бензопилой | The Texas Chainsaw Massacre-- Год выпуска: 2022
Страна: США, Болгария
Жанр: Ужасы, триллер, слэшер
Продолжительность: 01:23:05-Cубтитры: Русские, английские, арабские, чешские, датские, немецкие, греческие, испанские, финские, французские, иврит, хорватские, венгерские, итальянские, японские, корейские, малайские, голландские, польские, португальские, бразильские, румынские, шведские, тайские, турецкие, украинские, вьетнамские, китайские-Перевод: Дублированный | Невафильм по заказу NetFlix-Режиссер: Дэвид Блу Гарсиа-В ролях: Элис Крайдж, Элси Фишер, Нелл Хадсон, Уильям Хоуп, Мо Данфорд, Сара Яркин, Олуэн Фуэре, Джессика Уильямс, Джейкоб Латимор, Марк Бёрнэм-Описание: Фильм является прямым продолжением оригинальной ленты 1974 года. Маньяк, известный как Кожаное лицо, возвращается, чтобы устроить новую кровавую бойню. Оружием ему будет служить верная бензопила.-Качество видео: WEB-DL 1080p
Формат видео: MKV-Видео: HEVC, 8193 Кбит/с, 1920х1080, 24 кадр/с
Аудио #01: Русский (AC3, 6 ch, 448 Кбит/с)
Аудио #02: украинский (AAC, 6 ch, 366 Кбит/с)
Аудио #03: английский (E-AC3+Atmos, 6 ch, 768 Кбит/с)

MediaInfo

General
Unique ID : 291111868289040926014044985431075757113 (0xDB021B3F06712F8B6460223B5D8E9C39)
Complete name : D:\Зарубежные кино\Техасская резня бензопилой The Texas Chainsaw Massacre 2022\Техасская резня бензопилой 2022.mkv
Format : Matroska
Format version : Version 4
File size : 5.68 GiB
Duration : 1 h 23 min
Overall bit rate : 9 780 kb/s
Encoded date : UTC 2022-02-18 10:18:10
Writing application : mkvmerge v64.0.0 ('Willows') 64-bit
Writing library : libebml v1.4.2 + libmatroska v1.6.4
Video
ID : 1
Format : HEVC
Format/Info : High Efficiency Video Coding
Format profile : Main 10@L4@Main
Codec ID : V_MPEGH/ISO/HEVC
Duration : 1 h 23 min
Bit rate : 8 193 kb/s
Width : 1 920 pixels
Height : 1 080 pixels
Display aspect ratio : 16:9
Frame rate mode : Constant
Frame rate : 24.000 FPS
Color space : YUV
Chroma subsampling : 4:2:0
Bit depth : 10 bits
Bits/(Pixel*Frame) : 0.165
Stream size : 4.75 GiB (84%)
Default : Yes
Forced : No
Color range : Limited
Color primaries : BT.709
Transfer characteristics : BT.709
Matrix coefficients : BT.709
Audio #1
ID : 2
Format : AC-3
Format/Info : Audio Coding 3
Commercial name : Dolby Digital
Codec ID : A_AC3
Duration : 1 h 23 min
Bit rate mode : Constant
Bit rate : 448 kb/s
Channel(s) : 6 channels
Channel layout : L R C LFE Ls Rs
Sampling rate : 48.0 kHz
Frame rate : 31.250 FPS (1536 SPF)
Compression mode : Lossy
Delay relative to video : 37 ms
Stream size : 266 MiB (5%)
Language : Russian
Service kind : Complete Main
Default : Yes
Forced : No
Audio #2
ID : 3
Format : AAC LC
Format/Info : Advanced Audio Codec Low Complexity
Codec ID : A_AAC-2
Duration : 1 h 23 min
Bit rate : 366 kb/s
Channel(s) : 6 channels
Channel layout : C L R Ls Rs LFE
Sampling rate : 48.0 kHz
Frame rate : 46.875 FPS (1024 SPF)
Compression mode : Lossy
Stream size : 218 MiB (4%)
Language : Ukrainian
Default : Yes
Forced : No
Audio #3
ID : 4
Format : E-AC-3 JOC
Format/Info : Enhanced AC-3 with Joint Object Coding
Commercial name : Dolby Digital Plus with Dolby Atmos
Codec ID : A_EAC3
Duration : 1 h 23 min
Bit rate mode : Constant
Bit rate : 768 kb/s
Channel(s) : 6 channels
Channel layout : L R C LFE Ls Rs
Sampling rate : 48.0 kHz
Frame rate : 31.250 FPS (1536 SPF)
Compression mode : Lossy
Stream size : 456 MiB (8%)
Language : English
Service kind : Complete Main
Default : Yes
Forced : No
Complexity index : 16
Number of dynamic objects : 15
Bed channel count : 1 channel
Bed channel configuration : LFE
Text #1
ID : 5
Format : UTF-8
Codec ID : S_TEXT/UTF8
Codec ID/Info : UTF-8 Plain Text
Duration : 1 h 12 min
Bit rate : 31 b/s
Count of elements : 602
Stream size : 17.0 KiB (0%)
Language : English
Default : No
Forced : No
Text #2
ID : 6
Format : UTF-8
Codec ID : S_TEXT/UTF8
Codec ID/Info : UTF-8 Plain Text
Duration : 1 h 20 min
Bit rate : 42 b/s
Count of elements : 972
Stream size : 24.9 KiB (0%)
Title : SDH
Language : English
Default : No
Forced : No
Text #3
ID : 7
Format : UTF-8
Codec ID : S_TEXT/UTF8
Codec ID/Info : UTF-8 Plain Text
Duration : 1 h 20 min
Bit rate : 48 b/s
Count of elements : 595
Stream size : 28.4 KiB (0%)
Language : Arabic
Default : No
Forced : No
Text #4
ID : 8
Format : UTF-8
Codec ID : S_TEXT/UTF8
Codec ID/Info : UTF-8 Plain Text
Duration : 1 h 20 min
Bit rate : 25 b/s
Count of elements : 578
Stream size : 15.1 KiB (0%)
Language : Czech
Default : No
Forced : No
Text #5
ID : 9
Format : UTF-8
Codec ID : S_TEXT/UTF8
Codec ID/Info : UTF-8 Plain Text
Duration : 1 h 20 min
Bit rate : 25 b/s
Count of elements : 562
Stream size : 14.8 KiB (0%)
Language : Danish
Default : No
Forced : No
Text #6
ID : 10
Format : UTF-8
Codec ID : S_TEXT/UTF8
Codec ID/Info : UTF-8 Plain Text
Duration : 1 h 20 min
Bit rate : 27 b/s
Count of elements : 576
Stream size : 16.3 KiB (0%)
Language : German
Default : No
Forced : No
Text #7
ID : 11
Format : UTF-8
Codec ID : S_TEXT/UTF8
Codec ID/Info : UTF-8 Plain Text
Duration : 1 h 20 min
Bit rate : 45 b/s
Count of elements : 563
Stream size : 26.8 KiB (0%)
Language : Greek
Default : No
Forced : No
Text #8
ID : 12
Format : UTF-8
Codec ID : S_TEXT/UTF8
Codec ID/Info : UTF-8 Plain Text
Duration : 1 h 20 min
Bit rate : 26 b/s
Count of elements : 614
Stream size : 15.8 KiB (0%)
Language : Spanish
Default : No
Forced : No
Text #9
ID : 13
Format : UTF-8
Codec ID : S_TEXT/UTF8
Codec ID/Info : UTF-8 Plain Text
Duration : 1 h 20 min
Bit rate : 26 b/s
Count of elements : 562
Stream size : 15.8 KiB (0%)
Title : European
Language : Spanish
Default : No
Forced : No
Text #10
ID : 14
Format : UTF-8
Codec ID : S_TEXT/UTF8
Codec ID/Info : UTF-8 Plain Text
Duration : 1 h 20 min
Bit rate : 24 b/s
Count of elements : 502
Stream size : 14.4 KiB (0%)
Language : Finnish
Default : No
Forced : No
Text #11
ID : 15
Format : UTF-8
Codec ID : S_TEXT/UTF8
Codec ID/Info : UTF-8 Plain Text
Duration : 1 h 20 min
Bit rate : 25 b/s
Count of elements : 584
Stream size : 15.2 KiB (0%)
Language : French
Default : No
Forced : No
Text #12
ID : 16
Format : UTF-8
Codec ID : S_TEXT/UTF8
Codec ID/Info : UTF-8 Plain Text
Duration : 1 h 20 min
Bit rate : 46 b/s
Count of elements : 605
Stream size : 27.0 KiB (0%)
Language : Hebrew
Default : No
Forced : No
Text #13
ID : 17
Format : UTF-8
Codec ID : S_TEXT/UTF8
Codec ID/Info : UTF-8 Plain Text
Duration : 1 h 20 min
Bit rate : 22 b/s
Count of elements : 580
Stream size : 13.3 KiB (0%)
Language : Croatian
Default : No
Forced : No
Text #14
ID : 18
Format : UTF-8
Codec ID : S_TEXT/UTF8
Codec ID/Info : UTF-8 Plain Text
Duration : 1 h 20 min
Bit rate : 26 b/s
Count of elements : 564
Stream size : 15.8 KiB (0%)
Language : Hungarian
Default : No
Forced : No
Text #15
ID : 19
Format : UTF-8
Codec ID : S_TEXT/UTF8
Codec ID/Info : UTF-8 Plain Text
Duration : 1 h 20 min
Bit rate : 27 b/s
Count of elements : 589
Stream size : 15.9 KiB (0%)
Language : Indonesian
Default : No
Forced : No
Text #16
ID : 20
Format : UTF-8
Codec ID : S_TEXT/UTF8
Codec ID/Info : UTF-8 Plain Text
Duration : 1 h 20 min
Bit rate : 28 b/s
Count of elements : 596
Stream size : 16.8 KiB (0%)
Language : Italian
Default : No
Forced : No
Text #17
ID : 21
Format : UTF-8
Codec ID : S_TEXT/UTF8
Codec ID/Info : UTF-8 Plain Text
Duration : 1 h 20 min
Bit rate : 27 b/s
Count of elements : 633
Stream size : 16.3 KiB (0%)
Language : Japanese
Default : No
Forced : No
Text #18
ID : 22
Format : UTF-8
Codec ID : S_TEXT/UTF8
Codec ID/Info : UTF-8 Plain Text
Duration : 1 h 20 min
Bit rate : 34 b/s
Count of elements : 620
Stream size : 20.4 KiB (0%)
Language : Korean
Default : No
Forced : No
Text #19
ID : 23
Format : UTF-8
Codec ID : S_TEXT/UTF8
Codec ID/Info : UTF-8 Plain Text
Duration : 1 h 20 min
Bit rate : 26 b/s
Count of elements : 602
Stream size : 15.7 KiB (0%)
Language : Malay
Default : No
Forced : No
Text #20
ID : 24
Format : UTF-8
Codec ID : S_TEXT/UTF8
Codec ID/Info : UTF-8 Plain Text
Duration : 1 h 20 min
Bit rate : 25 b/s
Count of elements : 576
Stream size : 14.8 KiB (0%)
Language : Norwegian Bokmal
Default : No
Forced : No
Text #21
ID : 25
Format : UTF-8
Codec ID : S_TEXT/UTF8
Codec ID/Info : UTF-8 Plain Text
Duration : 1 h 20 min
Bit rate : 24 b/s
Count of elements : 554
Stream size : 14.2 KiB (0%)
Language : Dutch
Default : No
Forced : No
Text #22
ID : 26
Format : UTF-8
Codec ID : S_TEXT/UTF8
Codec ID/Info : UTF-8 Plain Text
Duration : 1 h 20 min
Bit rate : 25 b/s
Count of elements : 611
Stream size : 15.1 KiB (0%)
Language : Polish
Default : No
Forced : No
Text #23
ID : 27
Format : UTF-8
Codec ID : S_TEXT/UTF8
Codec ID/Info : UTF-8 Plain Text
Duration : 1 h 13 min
Bit rate : 28 b/s
Count of elements : 549
Stream size : 15.2 KiB (0%)
Language : Portuguese
Default : No
Forced : No
Text #24
ID : 28
Format : UTF-8
Codec ID : S_TEXT/UTF8
Codec ID/Info : UTF-8 Plain Text
Duration : 1 h 20 min
Bit rate : 27 b/s
Count of elements : 592
Stream size : 16.3 KiB (0%)
Title : Brazilian
Language : Portuguese
Default : No
Forced : No
Text #25
ID : 29
Format : UTF-8
Codec ID : S_TEXT/UTF8
Codec ID/Info : UTF-8 Plain Text
Duration : 1 h 20 min
Bit rate : 30 b/s
Count of elements : 594
Stream size : 18.1 KiB (0%)
Language : Romanian
Default : No
Forced : No
Text #26
ID : 30
Format : UTF-8
Codec ID : S_TEXT/UTF8
Codec ID/Info : UTF-8 Plain Text
Duration : 1 h 20 min
Bit rate : 44 b/s
Count of elements : 618
Stream size : 26.2 KiB (0%)
Language : Russian
Default : No
Forced : No
Text #27
ID : 31
Format : UTF-8
Codec ID : S_TEXT/UTF8
Codec ID/Info : UTF-8 Plain Text
Duration : 1 h 20 min
Bit rate : 25 b/s
Count of elements : 543
Stream size : 15.2 KiB (0%)
Language : Swedish
Default : No
Forced : No
Text #28
ID : 32
Format : UTF-8
Codec ID : S_TEXT/UTF8
Codec ID/Info : UTF-8 Plain Text
Duration : 1 h 20 min
Bit rate : 71 b/s
Count of elements : 601
Stream size : 41.8 KiB (0%)
Language : Thai
Default : No
Forced : No
Text #29
ID : 33
Format : UTF-8
Codec ID : S_TEXT/UTF8
Codec ID/Info : UTF-8 Plain Text
Duration : 1 h 20 min
Bit rate : 27 b/s
Count of elements : 588
Stream size : 16.3 KiB (0%)
Language : Turkish
Default : No
Forced : No
Text #30
ID : 34
Format : UTF-8
Codec ID : S_TEXT/UTF8
Codec ID/Info : UTF-8 Plain Text
Duration : 1 h 20 min
Bit rate : 42 b/s
Count of elements : 583
Stream size : 24.9 KiB (0%)
Language : Ukrainian
Default : No
Forced : No
Text #31
ID : 35
Format : UTF-8
Codec ID : S_TEXT/UTF8
Codec ID/Info : UTF-8 Plain Text
Duration : 1 h 20 min
Bit rate : 40 b/s
Count of elements : 527
Stream size : 24.1 KiB (0%)
Language : Vietnamese
Default : No
Forced : No
Text #32
ID : 36
Format : UTF-8
Codec ID : S_TEXT/UTF8
Codec ID/Info : UTF-8 Plain Text
Duration : 1 h 20 min
Bit rate : 31 b/s
Count of elements : 599
Stream size : 18.2 KiB (0%)
Title : Simplified
Language : Chinese
Default : No
Forced : No
Text #33
ID : 37
Format : UTF-8
Codec ID : S_TEXT/UTF8
Codec ID/Info : UTF-8 Plain Text
Duration : 1 h 20 min
Bit rate : 29 b/s
Count of elements : 606
Stream size : 17.2 KiB (0%)
Title : Traditional
Language : Chinese
Default : No
Forced : No
-
Показать сообщения:    

Текущее время: 15-Авг 14:24

Часовой пояс: UTC - 5



Вы не можете начинать темы
Вы не можете отвечать на сообщения
Вы не можете редактировать свои сообщения
Вы не можете удалять свои сообщения
Вы не можете голосовать в опросах
Вы не можете прикреплять файлы к сообщениям
Вы не можете скачивать файлы