Регистрация ·
Имя: Пароль:  
· Забыли пароль? · Вопросы от гостей
Уважаемые гости сайта! Добро Пожаловать на наш торрент трекер,где Вы можете бесплатно скачать любой Софт,Фильмы,Музыку и многое другое! А так же постоянно ведется набор модераторов и релизеров. Зарегистрируйтесь сейчас, чтобы получить доступ ко всем функциям. После регистрации или входа на сайт вы сможете создавать темы, отвечать на сообщения и скачивать файлы.

Техасская резня бензопилой / The Texas Chainsaw Massacre (Дэвид Блу Гарсиа) [2022, Ужасы, триллер, слэшер, WEB-DLRip 720p]

Статистика раздачи
Нет
Сегодня идет свободное скачивание без начисления Download
 
     
 
 
Автор Сообщение

narov2022 ®

Не в сети

6690

Пол: Мужской

Стаж: 5 месяцев 22 дня

Сообщений: 11

Карма: 0

[+]

Провайдер: Gals-Telecom Gals-Telecom

Наличие запрета:



Награды: Нет

[Профиль] ЛС

Создавать темы 18-Фев-2022 07:29

Цитировать

Техасская резня бензопилой | The Texas Chainsaw Massacre-- Год выпуска: 2022
Страна: США, Болгария
Жанр: Ужасы, триллер, слэшер
Продолжительность: 01:23:05-Cубтитры: Русские, английские-Перевод: Дублированный | Невафильм по заказу NetFlix-Режиссер: Дэвид Блу Гарсиа-В ролях: Элис Крайдж, Элси Фишер, Нелл Хадсон, Уильям Хоуп, Мо Данфорд, Сара Яркин, Олуэн Фуэре, Джессика Уильямс, Джейкоб Латимор, Марк Бёрнэм-Описание: Фильм является прямым продолжением оригинальной ленты 1974 года. Маньяк, известный как Кожаное лицо, возвращается, чтобы устроить новую кровавую бойню. Оружием ему будет служить верная бензопила.-Качество видео: WEB-DLRip 720p
Формат видео: MKV-Видео: HEVC, 2000 Кбит/с, 1280x536, 10 бит
Аудио #01: AC3, 6 ch, 384 Кбит/с | Русский
Аудио #02: AC3, 6 ch, 384 Кбит/с | английский

MediaInfo

General
Unique ID : 119956976579026777097227624410497988670 (0x5A3EDF921B78904DB60327943474B83E)
Complete name : D:\Зарубежные кино\Texas Chainsaw Massacre (2022) WEB-DLRip (1280x536) HEVC.mkv
Format : Matroska
Format version : Version 4
File size : 1.57 GiB
Duration : 1 h 23 min
Overall bit rate : 2 706 kb/s
Encoded date : UTC 2022-02-18 10:58:07
Writing application : mkvmerge v47.0.0 ('Black Flag') 64-bit
Writing library : libebml v1.3.10 + libmatroska v1.5.2
Video
ID : 1
Format : HEVC
Format/Info : High Efficiency Video Coding
Format profile : Main 10@L4@High
Codec ID : V_MPEGH/ISO/HEVC
Duration : 1 h 23 min
Bit rate : 1 936 kb/s
Width : 1 280 pixels
Height : 536 pixels
Display aspect ratio : 2.40:1
Frame rate mode : Constant
Frame rate : 24.000 FPS
Color space : YUV
Chroma subsampling : 4:2:0
Bit depth : 10 bits
Bits/(Pixel*Frame) : 0.118
Stream size : 1.12 GiB (72%)
Default : Yes
Forced : No
Audio #1
ID : 2
Format : AC-3
Format/Info : Audio Coding 3
Commercial name : Dolby Digital
Codec ID : A_AC3
Duration : 1 h 23 min
Bit rate mode : Constant
Bit rate : 384 kb/s
Channel(s) : 6 channels
Channel layout : L R C LFE Ls Rs
Sampling rate : 48.0 kHz
Frame rate : 31.250 FPS (1536 SPF)
Compression mode : Lossy
Stream size : 228 MiB (14%)
Language : Russian
Service kind : Complete Main
Default : Yes
Forced : No
Audio #2
ID : 3
Format : AC-3
Format/Info : Audio Coding 3
Commercial name : Dolby Digital
Codec ID : A_AC3
Duration : 1 h 23 min
Bit rate mode : Constant
Bit rate : 384 kb/s
Channel(s) : 6 channels
Channel layout : L R C LFE Ls Rs
Sampling rate : 48.0 kHz
Frame rate : 31.250 FPS (1536 SPF)
Compression mode : Lossy
Stream size : 228 MiB (14%)
Language : English
Service kind : Complete Main
Default : No
Forced : No
Text #1
ID : 4
Format : UTF-8
Codec ID : S_TEXT/UTF8
Codec ID/Info : UTF-8 Plain Text
Duration : 1 h 20 min
Bit rate : 1 b/s
Count of elements : 29
Stream size : 1.17 KiB (0%)
Title : Forced
Language : Russian
Default : Yes
Forced : No
Text #2
ID : 5
Format : UTF-8
Codec ID : S_TEXT/UTF8
Codec ID/Info : UTF-8 Plain Text
Duration : 1 h 20 min
Bit rate : 44 b/s
Count of elements : 618
Stream size : 26.2 KiB (0%)
Language : Russian
Default : No
Forced : No
Text #3
ID : 6
Format : UTF-8
Codec ID : S_TEXT/UTF8
Codec ID/Info : UTF-8 Plain Text
Duration : 1 h 12 min
Bit rate : 31 b/s
Count of elements : 602
Stream size : 17.0 KiB (0%)
Language : English
Default : No
Forced : No
Text #4
ID : 7
Format : UTF-8
Codec ID : S_TEXT/UTF8
Codec ID/Info : UTF-8 Plain Text
Duration : 1 h 20 min
Bit rate : 42 b/s
Count of elements : 972
Stream size : 24.9 KiB (0%)
Title : SDH
Language : English
Default : No
Forced : No
-
Показать сообщения:    

Текущее время: 10-Авг 15:13

Часовой пояс: UTC - 5



Вы не можете начинать темы
Вы не можете отвечать на сообщения
Вы не можете редактировать свои сообщения
Вы не можете удалять свои сообщения
Вы не можете голосовать в опросах
Вы не можете прикреплять файлы к сообщениям
Вы не можете скачивать файлы