Регистрация ·
Имя: Пароль:  
· Забыли пароль? · Вопросы от гостей
Уважаемые гости сайта! Добро Пожаловать на наш торрент трекер,где Вы можете бесплатно скачать любой Софт,Фильмы,Музыку и многое другое! А так же постоянно ведется набор модераторов и релизеров. Зарегистрируйтесь сейчас, чтобы получить доступ ко всем функциям. После регистрации или входа на сайт вы сможете создавать темы, отвечать на сообщения и скачивать файлы.

Игра в камешки / Dolmengi (Ким Джон-щик / Kim Jeong-shik) [2020, Драма, детектив, WEB-DLRip-AVC] | Кинопоиск HD

Статистика раздачи
Буду качать: [ 1 ]
Сегодня идет свободное скачивание без начисления Download
 
     
 
 
Автор Сообщение

narov2022 ®

Не в сети

6690

Пол: Мужской

Стаж: 4 месяца 9 дней

Сообщений: 11

Карма: 0

[+]

Провайдер: Gals-Telecom Gals-Telecom

Наличие запрета:



Награды: Нет

[Профиль] ЛС

Создавать темы 20-Апр-2022 07:04

Цитировать

Игра в камешки | Dolmengi- Год выпуска: 2020
Страна: Корея Южная
Жанр: Драма, детектив
Продолжительность: 01:46:58
Перевод: Профессиональный многоголосый | Кинопоиск HD-Режиссер: Ким Джон-щик / Kim Jeong-shik-В ролях: Ким Дэ-мен, Сон Юн А, Ким И Сон, Чон Ын-Чхэ, Ким Гван-хён, Ли Джин-хи, Квак Мин Сок, Ким Ги-чхон-Описание: История маленькой девочки Юн Чжи, которая сбегает из дома и оказывается в деревне. Здесь она знакомится с Сокгу, тридцатилетним мужчиной с разумом восьмилетнего ребенка. Между девочкой и Сокгу быстро завязывается крепкая дружба. Но однажды Юн Чжи бесследно исчезает. Жители начинают подозревать Сокгу в причастности к пропаже девочки.--Качество видео: WEB-DLRip-AVC
Формат видео: MKV
Видео: 1024x552 at 24.000 fps, x264@L4.1, ~2000 kbps
Аудио: AC3, 6 ch, ~448 kbps 48.0 kHz-

Тех. инфо

General
Unique ID : 118460760577622722472459944631041774928 (0x591EB66D28AF841CE05329E91337D550)
Complete name : D:\Зарубежные фильмы\Dolmengi.2020.WEB-DLRip.x264.mkv
Format : Matroska
Format version : Version 4
File size : 1.83 GiB
Duration : 1 h 46 min
Overall bit rate : 2 448 kb/s
Encoded date : UTC 2022-04-19 19:29:38
Writing application : mkvmerge v63.0.0 ('Everything') 64-bit
Writing library : libebml v1.4.2 + libmatroska v1.6.4
Cover : Yes
Attachments : cover.jpg / cover 2.jpg
Video
ID : 1
Format : AVC
Format/Info : Advanced Video Codec
Format profile : High@L4.1
Format settings : CABAC / 10 Ref Frames
Format settings, CABAC : Yes
Format settings, Reference fra : 10 frames
Codec ID : V_MPEG4/ISO/AVC
Duration : 1 h 46 min
Bit rate : 2 000 kb/s
Width : 1 024 pixels
Height : 552 pixels
Display aspect ratio : 1.85:1
Frame rate mode : Constant
Frame rate : 24.000 FPS
Color space : YUV
Chroma subsampling : 4:2:0
Bit depth : 8 bits
Scan type : Progressive
Bits/(Pixel*Frame) : 0.147
Stream size : 1.46 GiB (80%)
Title : -=DoMiNo=-
Writing library : x264 core 163 r3060 5db6aa6
Encoding settings : cabac=1 / ref=10 / deblock=1:-2:-1 / analyse=0x3:0x133 / me=umh / subme=10 / psy=1 / psy_rd=1.00:0.15 / mixed_ref=1 / me_range=32 / chroma_me=1 / trellis=2 / 8x8dct=1 / cqm=0 / deadzone=21,11 / fast_pskip=0 / chroma_qp_offset=-3 / threads=17 / lookahead_threads=2 / sliced_threads=0 / nr=0 / decimate=0 / interlaced=0 / bluray_compat=0 / constrained_intra=0 / bframes=9 / b_pyramid=2 / b_adapt=2 / b_bias=0 / direct=3 / weightb=1 / open_gop=0 / weightp=2 / keyint=240 / keyint_min=24 / scenecut=40 / intra_refresh=0 / rc_lookahead=80 / rc=2pass / mbtree=0 / bitrate=2000 / ratetol=1.0 / qcomp=0.60 / qpmin=0 / qpmax=69 / qpstep=4 / cplxblur=20.0 / qblur=0.5 / vbv_maxrate=50000 / vbv_bufsize=62500 / nal_hrd=none / filler=0 / ip_ratio=1.40 / pb_ratio=1.30 / aq=2:1.00
Language : English
Default : Yes
Forced : No
Audio
ID : 2
Format : AC-3
Format/Info : Audio Coding 3
Commercial name : Dolby Digital
Codec ID : A_AC3
Duration : 1 h 46 min
Bit rate mode : Constant
Bit rate : 448 kb/s
Channel(s) : 6 channels
Channel layout : L R C LFE Ls Rs
Sampling rate : 48.0 kHz
Frame rate : 31.250 FPS (1536 SPF)
Bit depth : 32 bits
Compression mode : Lossy
Stream size : 343 MiB (18%)
Title : MVO [Kinopoisk HD]
Language : Russian
Service kind : Complete Main
Default : Yes
Forced : No
Menu
00:00:00.000 : :Глава 01
00:07:30.000 : :Глава 02
00:15:00.000 : :Глава 03
00:22:30.000 : :Глава 04
00:30:00.000 : :Глава 05
00:37:30.000 : :Глава 06
00:45:00.000 : :Глава 07
00:52:30.000 : :Глава 08
01:00:00.000 : :Глава 09
01:07:30.000 : :Глава 10
01:15:00.000 : :Глава 11
01:22:30.000 : :Глава 12
01:30:00.000 : :Глава 13
01:37:30.000 : :Глава 14
01:45:00.000 : :Глава 15
-
Показать сообщения:    

Текущее время: 25-Июн 15:24

Часовой пояс: UTC - 5



Вы не можете начинать темы
Вы не можете отвечать на сообщения
Вы не можете редактировать свои сообщения
Вы не можете удалять свои сообщения
Вы не можете голосовать в опросах
Вы не можете прикреплять файлы к сообщениям
Вы не можете скачивать файлы