Регистрация ·
Имя: Пароль:  
· Забыли пароль? · Вопросы от гостей
Уважаемые гости сайта! Добро Пожаловать на наш торрент трекер,где Вы можете бесплатно скачать любой Софт,Фильмы,Музыку и многое другое! А так же постоянно ведется набор модераторов и релизеров. Зарегистрируйтесь сейчас, чтобы получить доступ ко всем функциям. После регистрации или входа на сайт вы сможете создавать темы, отвечать на сообщения и скачивать файлы.

Затерянный город / The Lost City (Аарон Ни, Адам Ни / Aaron Nee, Adam Nee) [2022, Комедия, приключения, мелодрама, боевик, WEB-DLRip]

Статистика раздачи
Нет
Сегодня идет свободное скачивание без начисления Download
 
     
 
 
Автор Сообщение

IKROMJON7546 ®

Не в сети

6539

Пол: Мужской

Стаж: 9 месяцев 25 дней

Сообщений: 3

Карма: 0

[+]

Провайдер: TURON-Telecom 

Наличие запрета:



Награды: Нет

[Профиль] ЛС

Создавать темы 14-Май-2022 00:17

Цитировать

[poster][/poster]Затерянный город | The Lost City
Год выпуска: 2022
Страна: США
Жанр: Комедия, приключения, мелодрама, боевик
Продолжительность: 01:51:49
Cубтитры: русские
Перевод: Профессиональный (многоголосый закадровый)
Доп. инфо о переводе: Jaskier
Режиссер: Аарон Ни, Адам Ни / Aaron Nee, Adam Nee
В ролях: Сандра Буллок, Ченнинг Татум, Дэниэл Рэдклифф, Да’Вин Джой Рэндольф, Оскар Нуньес, Патти Харрисон, Брэд Питт, Боуэн Янг, Стивен Лэнг, Джоан Прингл
Описание: Лоретта Сейдж пишет популярные любовно-приключенческие романы. События в них непременно разворачиваются в экзотических местах, а главный герой — красавчик и мечта героинь Дэш, которого в жизни воплощает модель Алан. Во время промотура нового бестселлера Лоретту похищает эксцентричный миллиардер, уверенный, что она сможет привести его к сокровищам древнего затерянного города из ее последней книги. Алан решает доказать, что может быть героем в реальной жизни, а не только на страницах книг, и отправляется Лоретте на выручку.
Качество видео: WEB-DLRip
Формат видео: MKV
Видео кодек: H.264
Аудио кодек: AC3
Видео: Качество: WEB-DLRip 720p Формат: MKV Видео: HEVC/H265, 1280x536, 23.976 fps, 946 kb/s
Аудио: Аудио 1: AC3, 48.0 kHz, 6 ch, 448 kb/s | RUS | MVO | Jaskier pic Аудио 2: AAC, 48.0 kHz, 6 ch, 213 kb/s | ENG | Original pic

MediaInfo

General
Unique ID : 67704946146277313498851887622190866655 (0x32EF7F91ADA36B2C66D46BDC3C6520DF)
Complete name : Затерянный.город.2022.WEB-DLRip.720p.HEVC.10bit.mkv
Format : Matroska
Format version : Version 4
File size : 1.26 GiB
Duration : 1 h 51 min
Overall bit rate : 1 609 kb/s
Movie name : The.Lost.City.2022.720p.10bit.WEB-DLRip.x265.HEVC
Encoded date : UTC 2022-05-13 09:19:53
Writing application : mkvmerge v40.0.0 ('Old Town Road + Pony') 32-bit
Writing library : libebml v1.3.9 + libmatroska v1.5.2
Cover : Yes
Attachments : Poster.jpg
Video
ID : 1
Format : HEVC
Format/Info : High Efficiency Video Coding
Format profile : Main 10@L3.1@Main
Codec ID : V_MPEGH/ISO/HEVC
Duration : 1 h 51 min
Bit rate : 946 kb/s
Width : 1 280 pixels
Height : 536 pixels
Display aspect ratio : 2.40:1
Frame rate mode : Constant
Frame rate : 23.976 (24000/1001) FPS
Color space : YUV
Chroma subsampling : 4:2:0
Bit depth : 10 bits
Bits/(Pixel*Frame) : 0.057
Stream size : 756 MiB (59%)
Language : English
Default : Yes
Forced : No
Color range : Limited
Color primaries : BT.709
Transfer characteristics : BT.709
Matrix coefficients : BT.709
Audio #1
ID : 2
Format : AC-3
Format/Info : Audio Coding 3
Commercial name : Dolby Digital
Codec ID : A_AC3
Duration : 1 h 51 min
Bit rate mode : Constant
Bit rate : 448 kb/s
Channel(s) : 6 channels
Channel layout : L R C LFE Ls Rs
Sampling rate : 48.0 kHz
Frame rate : 31.250 FPS (1536 SPF)
Compression mode : Lossy
Stream size : 358 MiB (28%)
Title : MVO | Jaskier
Language : Russian
Service kind : Complete Main
Default : Yes
Forced : No
Audio #2
ID : 3
Format : AAC LC SBR
Format/Info : Advanced Audio Codec Low Complexity with Spectral Band Replication
Commercial name : HE-AAC
Format settings : Explicit
Codec ID : A_AAC-2
Duration : 1 h 51 min
Bit rate : 213 kb/s
Channel(s) : 6 channels
Channel layout : C L R Ls Rs LFE
Sampling rate : 48.0 kHz
Frame rate : 23.438 FPS (2048 SPF)
Compression mode : Lossy
Delay relative to video : 23 ms
Stream size : 170 MiB (13%)
Title : Original
Language : English
Default : No
Forced : No
Text #1
ID : 4
Format : UTF-8
Codec ID : S_TEXT/UTF8
Codec ID/Info : UTF-8 Plain Text
Duration : 1 h 45 min
Bit rate : 142 b/s
Count of elements : 1723
Stream size : 110 KiB (0%)
Title : Full
Language : Russian
Default : No
Forced : No
Text #2
ID : 5
Format : UTF-8
Codec ID : S_TEXT/UTF8
Codec ID/Info : UTF-8 Plain Text
Duration : 1 h 45 min
Bit rate : 78 b/s
Count of elements : 1720
Stream size : 60.2 KiB (0%)
Title : Full
Language : English
Default : No
Forced : No
Text #3
ID : 6
Format : UTF-8
Codec ID : S_TEXT/UTF8
Codec ID/Info : UTF-8 Plain Text
Duration : 1 h 45 min
Bit rate : 87 b/s
Count of elements : 1908
Stream size : 67.7 KiB (0%)
Title : SDH
Language : English
Default : No
Forced : No
Показать сообщения:    

Текущее время: 25-Июн 15:40

Часовой пояс: UTC - 5



Вы не можете начинать темы
Вы не можете отвечать на сообщения
Вы не можете редактировать свои сообщения
Вы не можете удалять свои сообщения
Вы не можете голосовать в опросах
Вы не можете прикреплять файлы к сообщениям
Вы не можете скачивать файлы