Регистрация ·
Имя: Пароль:  
· Забыли пароль? · Вопросы от гостей
Уважаемые гости сайта! Добро Пожаловать на наш торрент трекер,где Вы можете бесплатно скачать любой Софт,Фильмы,Музыку и многое другое! А так же постоянно ведется набор модераторов и релизеров. Зарегистрируйтесь сейчас, чтобы получить доступ ко всем функциям. После регистрации или входа на сайт вы сможете создавать темы, отвечать на сообщения и скачивать файлы.

Ne'mat / Бун / Boon (Derek Presli) [2022, triller, drama, jangari, detektiv, jinoiy, 1080p, WEBRip] O'zbek tilida

Статистика раздачи
Скачал: [ 2 ]
Сегодня идет свободное скачивание без начисления Download
 
     
 
 
Автор Сообщение

gnom6862 ®

Не в сети

5454

Пол: Мужской

Стаж: 2 года 11 месяцев

Сообщений: 7

Карма: 0

[+]

Провайдер: UzOnline UzOnline

Наличие запрета:



Награды: Нет

[Профиль] ЛС

Создавать темы 06-Июн-2022 23:06

Цитировать

Ne'mat | Бун | Boon
Chiqqan yili: 2022
Davlat: AQSH
Janr: triller, drama, jangari, detektiv, jinoiy
Davomiyligi: 01:35:45
Subtitr: нет
Tarjima: Professional (dublyaj) Sevimli TV
Rejisser: Derek Presli
Rollarda: Nil Makdonof, Tommi Flanagan, Kristina Ochoa, Jeyson Skott Li, Jeyms Madio, Gabriel Karteris, Kristiana Zaydel, Demetrius Gross, Pat Monagan, Jon Patrik Jordan
Tavsif: Beva qolgan Ketrin o'zini va o'g'lini mahalliy jinoiy tashkilotdan himoya qilishga harakat qiladi. Nik Bun va Ketrinning hayoti kesishganda, ular o'zlari turgan hamma narsani himoya qilish uchun bir-biriga suyanishadi.
Video sifati: WEB-Rip
Video formati: MKV
Video kodeki: H.264
Audio kodeki: AAC
Video: WEBRip x264, 1904x1024 (1.85:1), 23.976 fps, 2250 kb/s
Audio: AAC, 44.1 kHz, 2 ch, 192 kbps, Uzbek

MediaInfo

General
Unique ID : 323606240995864539663943646712419214900 (0xF3744B83508DED29DEC6D9C2C6126634)
Complete name : Nemat.2022.1080p.WEBRip.x264.AAC5.1.mkv
Format : Matroska
Format version : Version 4
File size : 1.89 GiB
Duration : 1 h 35 min
Overall bit rate : 2 832 kb/s
Encoded date : UTC 2022-06-04 07:54:12
Writing application : mkvmerge v68.0.0 ('The Curtain') 64-bit
Writing library : libebml v1.4.2 + libmatroska v1.6.4
Video
ID : 1
Format : AVC
Format/Info : Advanced Video Codec
Format profile : High@L4.1
Format settings : CABAC / 4 Ref Frames
Format settings, CABAC : Yes
Format settings, Reference : 4 frames
Codec ID : V_MPEG4/ISO/AVC
Duration : 1 h 35 min
Bit rate : 2 250 kb/s
Width : 1 904 pixels
Height : 1 024 pixels
Display aspect ratio : 1.85:1
Frame rate mode : Constant
Frame rate : 23.976 (24000/1001) FPS
Color space : YUV
Chroma subsampling : 4:2:0
Bit depth : 8 bits
Scan type : Progressive
Bits/(Pixel*Frame) : 0.048
Stream size : 1.50 GiB (79%)
Writing library : x264 core 161
Encoding settings : cabac=1 / ref=4 / deblock=1:-1:-1 / analyse=0x3:0x133 / me=umh / subme=9 / psy=1 / psy_rd=1.00:0.15 / mixed_ref=1 / me_range=24 / chroma_me=1 / trellis=2 / 8x8dct=1 / cqm=0 / deadzone=21,11 / fast_pskip=0 / chroma_qp_offset=-3 / threads=24 / lookahead_threads=2 / sliced_threads=0 / nr=0 / decimate=1 / interlaced=0 / bluray_compat=0 / constrained_intra=0 / bframes=3 / b_pyramid=2 / b_adapt=2 / b_bias=0 / direct=3 / weightb=1 / open_gop=0 / weightp=2 / keyint=250 / keyint_min=23 / scenecut=40 / intra_refresh=0 / rc_lookahead=60 / rc=2pass / mbtree=1 / bitrate=2250 / ratetol=1.0 / qcomp=0.60 / qpmin=0 / qpmax=69 / qpstep=4 / cplxblur=20.0 / qblur=0.5 / vbv_maxrate=31250 / vbv_bufsize=31250 / nal_hrd=none / filler=0 / ip_ratio=1.40 / aq=1:1.00
Default : Yes
Forced : No
Color range : Limited
Color primaries : BT.709
Transfer characteristics : BT.709
Matrix coefficients : BT.709
Audio #1
ID : 2
Format : AAC LC
Format/Info : Advanced Audio Codec Low Complexity
Codec ID : A_AAC-2
Duration : 1 h 35 min
Bit rate : 192 kb/s
Channel(s) : 2 channels
Channel layout : L R
Sampling rate : 44.1 kHz
Frame rate : 43.066 FPS (1024 SPF)
Compression mode : Lossy
Delay relative to video : -43 ms
Stream size : 134 MiB (7%)
Language : Uzbek
Default : Yes
Forced : No
Audio #2
ID : 3
Format : AAC LC
Format/Info : Advanced Audio Codec Low Complexity
Codec ID : A_AAC-2
Duration : 1 h 35 min
Bit rate : 384 kb/s
Channel(s) : 6 channels
Channel layout : C L R Ls Rs LFE
Sampling rate : 48.0 kHz
Frame rate : 46.875 FPS (1024 SPF)
Compression mode : Lossy
Delay relative to video : -43 ms
Stream size : 263 MiB (14%)
Language : English
Default : No
Forced : No
Показать сообщения:    

Текущее время: 15-Авг 13:27

Часовой пояс: UTC - 5



Вы не можете начинать темы
Вы не можете отвечать на сообщения
Вы не можете редактировать свои сообщения
Вы не можете удалять свои сообщения
Вы не можете голосовать в опросах
Вы не можете прикреплять файлы к сообщениям
Вы не можете скачивать файлы