Регистрация ·
Имя: Пароль:  
· Забыли пароль? · Вопросы от гостей
Уважаемые гости сайта! Добро Пожаловать на наш торрент трекер,где Вы можете бесплатно скачать любой Софт,Фильмы,Музыку и многое другое! А так же постоянно ведется набор модераторов и релизеров. Зарегистрируйтесь сейчас, чтобы получить доступ ко всем функциям. После регистрации или входа на сайт вы сможете создавать темы, отвечать на сообщения и скачивать файлы.

Shang-Chi va o'nta halqa afsonasi / Шан-Чи и легенда десяти колец / Shang-Chi and the Legend of the Ten Rings (Destin Daniel Cretton) [2021, fantastika, jangari, komediya, sarguzasht, 1080p, BluRay] O'zbek tilida

Статистика раздачи
Скачал: [ 1 ]
Сегодня идет свободное скачивание без начисления Download
 
     
 
 
Автор Сообщение

gnom6862 ®

Не в сети

5454

Пол: Мужской

Стаж: 2 года 11 месяцев

Сообщений: 7

Карма: 0

[+]

Провайдер: UzOnline UzOnline

Наличие запрета:



Награды: Нет

[Профиль] ЛС

Создавать темы 14-Июн-2022 06:22

Цитировать

Shang-Chi va o'nta halqa afsonasi | Шан-Чи и легенда десяти колец | Shang-Chi and the Legend of the Ten Rings
Chiqqan yili: 2021
Davlat: AQSH
Janr: fantastika, jangari, komediya, sarguzasht
Davomiyligi: 02:12:20
Subtitr: English
Tarjima: Professional (dublyaj) O'zbek tilida
Rejisser: Destin Daniel Cretton
Rollarda: Simu Liu, Aquafina, Toni Leung Chu Vay, Mishel Yeoh, Ronni Chang, Dallas Lyu, Florian Muntyanu, Fala Cheng, Menger Chjan, Tim Rot, Benedikt Vong, Fernando Chien, Aleksandr Chen
Tavsif: Ko'p yuz yillar oldin, shuhratparast jangchi Xu Venvu sehrli jangovar artefaktni - o'nta halqani egallab oldi, u bilan barcha dushmanlarni mag'lub etdi va yashirin tashkilot yaratdi. Asrlar davomida qo‘shin ko‘tarib, jahon tarixiga pinhona aralashdi, lekin 1996-yilda Talo qishlog‘ida beg‘araz ko‘zlardan yashiringan go‘zal qiz, yakkakurash ustasi bilan tanishib, o‘rnashib, oila qurdi. San-Fransisko, 25 yildan keyin. Shon yigit oddiy avtoturargohda xizmatkor bo'lib ishlaydi va tez mashinalarning ashaddiy muxlisi bo'lgan do'sti va hamkasbi Keti bilan karaokeda oqshomlarni o'tkazadi. Bir kuni yaxshi tayyorgarlikdan o'tgan jangchilar ishga ketayotib, Shonga onasi sovg'a qilgan medalyonni olib ketish uchun do'stlariga hujum qilishadi.
Video sifati: BluRay
Video formati: MKV
Video kodeki: H.264
Audio kodeki: AAC
Video: BluRay x264, 1920x804 (2.40:1), 23.976 fps, 2500 kb/s
Audio: AAC, 44.1 kHz, 2 ch, 192 kbps, Uzbek
Audio: AAC, 48.0 kHz, 6 ch, 224 kbps, English

MediaInfo

General
Unique ID : 269092347821240571632460346026424353699 (0xCA714D1171EA287827F9D82A288943A3)
Complete name : Shang-Chi.va.onta.halqa.afsonasi.2021.1080p.BluRay.H264.AAC.mkv
Format : Matroska
Format version : Version 4
File size : 2.70 GiB
Duration : 2 h 12 min
Overall bit rate : 2 923 kb/s
Encoded date : UTC 2021-11-12 20:40:50
Writing application : mkvmerge v56.1.0 ('My Friend') 64-bit
Writing library : libebml v1.4.2 + libmatroska v1.6.4
Video
ID : 1
Format : AVC
Format/Info : Advanced Video Codec
Format profile : High@L4.1
Format settings : CABAC / 4 Ref Frames
Format settings, CABAC : Yes
Format settings, Reference fra : 4 frames
Codec ID : V_MPEG4/ISO/AVC
Duration : 2 h 12 min
Bit rate : 2 500 kb/s
Width : 1 920 pixels
Height : 804 pixels
Display aspect ratio : 2.40:1
Frame rate mode : Constant
Frame rate : 23.976 (23976/1000) FPS
Color space : YUV
Chroma subsampling : 4:2:0
Bit depth : 8 bits
Scan type : Progressive
Bits/(Pixel*Frame) : 0.068
Stream size : 2.31 GiB (86%)
Writing library : x264 core 152 r2851M ba24899
Encoding settings : cabac=1 / ref=4 / deblock=1:-1:-1 / analyse=0x3:0x113 / me=umh / subme=9 / psy=1 / psy_rd=1.00:0.15 / mixed_ref=1 / me_range=24 / chroma_me=1 / trellis=2 / 8x8dct=1 / cqm=0 / deadzone=21,11 / fast_pskip=1 / chroma_qp_offset=-3 / threads=16 / lookahead_threads=4 / sliced_threads=0 / nr=0 / decimate=1 / interlaced=0 / bluray_compat=0 / constrained_intra=0 / bframes=3 / b_pyramid=2 / b_adapt=2 / b_bias=0 / direct=3 / weightb=1 / open_gop=0 / weightp=2 / keyint=250 / keyint_min=25 / scenecut=40 / intra_refresh=0 / rc_lookahead=50 / rc=2pass / mbtree=1 / bitrate=2500 / ratetol=1.0 / qcomp=0.60 / qpmin=0 / qpmax=69 / qpstep=4 / cplxblur=20.0 / qblur=0.5 / vbv_maxrate=31250 / vbv_bufsize=31250 / nal_hrd=none / filler=0 / ip_ratio=1.40 / aq=3:1.00
Default : Yes
Forced : No
Audio #1
ID : 2
Format : AAC LC
Format/Info : Advanced Audio Codec Low Complexity
Codec ID : A_AAC-2
Duration : 2 h 12 min
Bit rate : 192 kb/s
Channel(s) : 2 channels
Channel layout : L R
Sampling rate : 44.1 kHz
Frame rate : 43.066 FPS (1024 SPF)
Compression mode : Lossy
Delay relative to video : -43 ms
Stream size : 185 MiB (7%)
Title : by Cinerama.Pro
Language : Uzbek
Default : Yes
Forced : Yes
Audio #2
ID : 3
Format : AAC LC
Format/Info : Advanced Audio Codec Low Complexity
Codec ID : A_AAC-2
Duration : 2 h 12 min
Bit rate : 224 kb/s
Channel(s) : 6 channels
Channel layout : C L R Ls Rs LFE
Sampling rate : 48.0 kHz
Frame rate : 46.875 FPS (1024 SPF)
Compression mode : Lossy
Delay relative to video : -43 ms
Stream size : 212 MiB (8%)
Language : English
Default : No
Forced : No
Text #1
ID : 4
Format : UTF-8
Codec ID : S_TEXT/UTF8
Codec ID/Info : UTF-8 Plain Text
Duration : 20 min 15 s
Bit rate : 0 b/s
Count of elements : 2
Stream size : 150 Bytes (0%)
Language : Uzbek
Default : Yes
Forced : Yes
Text #2
ID : 5
Format : UTF-8
Codec ID : S_TEXT/UTF8
Codec ID/Info : UTF-8 Plain Text
Duration : 2 h 12 min
Bit rate : 95 b/s
Count of elements : 2017
Stream size : 92.4 KiB (0%)
Language : English
Default : No
Forced : No
Показать сообщения:    

Текущее время: 15-Авг 14:11

Часовой пояс: UTC - 5



Вы не можете начинать темы
Вы не можете отвечать на сообщения
Вы не можете редактировать свои сообщения
Вы не можете удалять свои сообщения
Вы не можете голосовать в опросах
Вы не можете прикреплять файлы к сообщениям
Вы не можете скачивать файлы