Регистрация ·
Имя: Пароль:  
· Забыли пароль? · Вопросы от гостей
Уважаемые гости сайта! Добро Пожаловать на наш торрент трекер,где Вы можете бесплатно скачать любой Софт,Фильмы,Музыку и многое другое! А так же постоянно ведется набор модераторов и релизеров. Зарегистрируйтесь сейчас, чтобы получить доступ ко всем функциям. После регистрации или входа на сайт вы сможете создавать темы, отвечать на сообщения и скачивать файлы.

Сборник клипов - Eurodance 90-х Часть 12 DVDRip [2022, Eurodance, DVDRip]

Статистика раздачи
Нет
Сегодня идет свободное скачивание без начисления Download
 
     
 
 
Автор Сообщение

ewrodance ®

Не в сети

6811

Пол: Мужской

Стаж: 2 месяца 2 дня

Сообщений: 1

Карма: 0

[+]

Провайдер: Ars-Inform Ars-Inform

Наличие запрета:



Награды: Нет

[Профиль] ЛС

Создавать темы 14-Июн-2022 22:21

Цитировать

Сборник клипов - Eurodance 90-х Часть 12 DVDRip
Год выпуска: 2022
Страна: Europa
Жанр: Eurodance
Продолжительность: 03
Cубтитры: нет
Перевод: Не требуется
Описание: Направления европейской электронной танцевальной музыки, появившегося в конце 1980-х годов в результате слияния техно, хауса и элементов европейского диско и имевшего пик популярности в начале—середине 90-х. Сочетает в себе элементы хай-энерджи, техно, хауса, реже хип-хопа и рэгги. Включает в себя множество относительно самостоятельных направлений музыки.
Качество видео: DVDRip
Формат видео: DVD Video
Видео кодек: MPEG2
Аудио кодек: DVD-AUDIO
Видео: 720x480, 10000 kb/s
Аудио: PCM, 2ch, 5.1ch, 1536 kbps

MediaInfo

General
Complete name : D:\все клипы часть 12\2 Brothers On The 4th Floor - Mirror Of Love (1996) (LD-AudioCD).vob
Format : MPEG-PS
File size : 282 MiB
Duration : 3 min 35 s
Overall bit rate mode : Variable
Overall bit rate : 11.0 Mb/s
Writing library : (c) 1998-2009 Womble Multimedia, Inc. / MPEG Video Wizard (03/2009) / Jun 24 2009
Video
ID : 224 (0xE0)
Format : MPEG Video
Format version : Version 2
Format profile : Main@Main
Format settings : BVOP
Format settings, BVOP : Yes
Format settings, Matrix : Default
Format settings, GOP : Variable
Format settings, picture struc : Frame
Duration : 3 min 35 s
Bit rate mode : Variable
Bit rate : 9 203 kb/s
Maximum bit rate : 9 300 kb/s
Width : 720 pixels
Height : 480 pixels
Display aspect ratio : 4:3
Frame rate : 29.970 (30000/1001) FPS
Standard : NTSC
Color space : YUV
Chroma subsampling : 4:2:0
Bit depth : 8 bits
Scan type : Interlaced
Scan order : Top Field First
Compression mode : Lossy
Bits/(Pixel*Frame) : 0.889
Time code of first frame : 00:00:00;00
Time code source : Group of pictures header
GOP, Open/Closed : Open
Stream size : 237 MiB (84%)
Writing library : (c) 1998-2009 Womble Multimedia, Inc. / MPEG Video Wizard (03/2009) / Jun 24 2009
Color primaries : BT.601 NTSC
Transfer characteristics : BT.601
Matrix coefficients : BT.601
Audio
ID : 189 (0xBD)-160 (0xA0)
Format : PCM
Format settings : Big / Signed
Muxing mode : DVD-Video
Duration : 3 min 35 s
Bit rate mode : Constant
Bit rate : 1 536 kb/s
Channel(s) : 2 channels
Sampling rate : 48.0 kHz
Bit depth : 16 bits
Stream size : 39.5 MiB (14%)
Menu
Format : DVD-Video

Скриншоты

Показать сообщения:    

Текущее время: 10-Авг 16:21

Часовой пояс: UTC - 5



Вы не можете начинать темы
Вы не можете отвечать на сообщения
Вы не можете редактировать свои сообщения
Вы не можете удалять свои сообщения
Вы не можете голосовать в опросах
Вы не можете прикреплять файлы к сообщениям
Вы не можете скачивать файлы