Регистрация ·
Имя: Пароль:  
· Забыли пароль? · Вопросы от гостей
Уважаемые гости сайта! Добро Пожаловать на наш торрент трекер,где Вы можете бесплатно скачать любой Софт,Фильмы,Музыку и многое другое! А так же постоянно ведется набор модераторов и релизеров. Зарегистрируйтесь сейчас, чтобы получить доступ ко всем функциям. После регистрации или входа на сайт вы сможете создавать темы, отвечать на сообщения и скачивать файлы.

Tor / Тор / Thor (Kennet Branagh) [2011, fantastika, jangari, sarguzasht, 1080p, BluRay] O'zbek tilida

Статистика раздачи
Качаю: [ 1 ]
Скачал: [ 2 ]
Сегодня идет свободное скачивание без начисления Download
 
     
 
 
Автор Сообщение

gnom6862 ®

Не в сети

5454

Пол: Мужской

Стаж: 2 года 11 месяцев

Сообщений: 7

Карма: 0

[+]

Провайдер: UzOnline UzOnline

Наличие запрета:



Награды: Нет

[Профиль] ЛС

Создавать темы 19-Июн-2022 14:11

Цитировать

Tor | Тор | Thor
Chiqqan yili: 2011
Davlat: AQSH
Janr: fantastika, jangari, sarguzasht
Davomiyligi: 01:54:50
Subtitr: English
Tarjima: Professional (dublyaj) O'zbek tilida
Rejisser: Kennet Branagh
Rollarda: Kris Xemsvort, Natali Portman, Kennet Brana, Entoni Xopkins, Idris Elba, Rey Stivenson, Kat Dennings, Tom Xidlston, Stellan Skarsgard, Rene Russo, Jeymi Aleksandr, Klark Gregg, Kolm Fiore, Erik A. Kramer, Asanosh Tadanob, Mett Battaglia, Jey Maykl Strachinski, Mattias Shveyxofer, Adriana Barrazza
Tavsif: Epik sarguzasht ham bizning Yer sayyoramizda, ham Asgard xudolari shohligida sodir bo'ladi. Hikoyaning markazida Qudratli Tor, kuchli, ammo takabbur jangchi, uning ehtiyotsiz harakatlari Asgarddagi qadimiy urushni jonlantiradi. Tor Yerga surgunga yuboriladi, uning vakolatlaridan mahrum qilinadi va jazo sifatida oddiy odamlar orasida yashashga majbur bo'ladi ...
Video sifati: BluRay
Video formati: MKV
Video kodeki: H.264
Audio kodeki: AAC
Video: BluRay x264, 1920x816 (2.35:1), 23.976 fps, 1906 kb/s
Audio: AAC, 48.0 kHz, 2 ch, 128 kbps, Uzbek
Audio: AAC, 48.0 kHz, 2 ch, 92 kbps, English

MediaInfo

General
Unique ID : 63495545468983738339339444923502766754 (0x2FC4CC179E5E96EE4157D8740FDD2AA2)
Complete name : Tor.2011.1080p.BrRip.x264.AAC.mkv
Format : Matroska
Format version : Version 4
File size : 1.71 GiB
Duration : 1 h 54 min
Overall bit rate : 2 129 kb/s
Encoded date : UTC 2022-06-19 18:30:12
Writing application : mkvmerge v68.0.0 ('The Curtain') 64-bit
Writing library : libebml v1.4.2 + libmatroska v1.6.4
Video
ID : 1
Format : AVC
Format/Info : Advanced Video Codec
Format profile : High@L4
Format settings : CABAC / 5 Ref Frames
Format settings, CABAC : Yes
Format settings, Reference : 5 frames
Codec ID : V_MPEG4/ISO/AVC
Duration : 1 h 54 min
Bit rate : 1 906 kb/s
Width : 1 920 pixels
Height : 816 pixels
Display aspect ratio : 2.35:1
Frame rate mode : Constant
Frame rate : 23.976 (24000/1001) FPS
Color space : YUV
Chroma subsampling : 4:2:0
Bit depth : 8 bits
Scan type : Progressive
Bits/(Pixel*Frame) : 0.051
Stream size : 1.53 GiB (90%)
Writing library : x264 core 120 r2164 da19765
Encoding settings : cabac=1 / ref=5 / deblock=1:0:0 / analyse=0x3:0x113 / me=umh / subme=8 / psy=1 / psy_rd=1.00:0.15 / mixed_ref=1 / me_range=16 / chroma_me=1 / trellis=1 / 8x8dct=1 / cqm=0 / deadzone=21,11 / fast_pskip=1 / chroma_qp_offset=-3 / threads=6 / sliced_threads=0 / nr=0 / decimate=1 / interlaced=0 / bluray_compat=0 / constrained_intra=0 / bframes=10 / b_pyramid=2 / b_adapt=2 / b_bias=0 / direct=3 / weightb=1 / open_gop=0 / weightp=2 / keyint=240 / keyint_min=23 / scenecut=40 / intra_refresh=0 / rc_lookahead=50 / rc=2pass / mbtree=1 / bitrate=1906 / ratetol=1.0 / qcomp=0.60 / qpmin=10 / qpmax=51 / qpstep=4 / cplxblur=20.0 / qblur=0.5 / ip_ratio=1.40 / aq=1:1.00
Default : Yes
Forced : No
Audio #1
ID : 2
Format : AAC LC
Format/Info : Advanced Audio Codec Low Complexity
Codec ID : A_AAC-2
Duration : 1 h 54 min
Bit rate : 128 kb/s
Channel(s) : 2 channels
Channel layout : L R
Sampling rate : 48.0 kHz
Frame rate : 46.875 FPS (1024 SPF)
Compression mode : Lossy
Delay relative to video : -83 ms
Stream size : 105 MiB (6%)
Language : Uzbek
Default : Yes
Forced : No
Audio #2
ID : 3
Format : AAC LC
Format/Info : Advanced Audio Codec Low Complexity
Codec ID : A_AAC-2
Duration : 1 h 54 min
Bit rate : 92.0 kb/s
Channel(s) : 2 channels
Channel layout : L R
Sampling rate : 48.0 kHz
Frame rate : 46.875 FPS (1024 SPF)
Compression mode : Lossy
Delay relative to video : -83 ms
Stream size : 75.6 MiB (4%)
Language : English
Default : No
Forced : No
Text
ID : 4
Format : UTF-8
Codec ID : S_TEXT/UTF8
Codec ID/Info : UTF-8 Plain Text
Duration : 1 h 53 min
Bit rate : 42 b/s
Count of elements : 1189
Stream size : 35.1 KiB (0%)
Language : English
Default : Yes
Forced : No

Scorpion

Не в сети

6787

Пол: Мужской

Стаж: 3 месяца

Сообщений: 1

Карма: 0

[+]

Провайдер: UzOnline UzOnline

Наличие запрета:



Награды: Нет

[Профиль] ЛС

Создавать темы 02-Июл-2022 19:51 (спустя 13 дней)

Цитировать

gnom6862, waay borakansizu
oka kotta rahmat
Показать сообщения:    

Текущее время: 15-Авг 13:46

Часовой пояс: UTC - 5



Вы не можете начинать темы
Вы не можете отвечать на сообщения
Вы не можете редактировать свои сообщения
Вы не можете удалять свои сообщения
Вы не можете голосовать в опросах
Вы не можете прикреплять файлы к сообщениям
Вы не можете скачивать файлы