Регистрация ·
Имя: Пароль:  
· Забыли пароль? · Вопросы от гостей
Kliplar To'plami
O'zbek Tilida
Rizanova
Qo'riqchi ayol
O'zbek Tilida
BluRay 1080p
SHAFT
O'zbek Tilida
BDRip
SHAFT
O'zbek Tilida
WEBRip 1080p
Javohir politsiyachi
O'zbek Tilida
BDRip-AVC
So'nggi Ritsarlar
O'zbek Tilida
BluRay 1080p
Агент Ева
O'zbek Tilida
WEB-Rip
Анна
iTunes
BDRip 1080p
Анна
iTunes
BDRip-AVC
Анна
iTunes
BDRip
Mulan
O'zbek Tilida
WEBRip 1080p HEVC x265
Мулан
IdeaFilm
WEB-DL 720p
Мулан
IdeaFilm
WEB-DL 1080p
Мулан
IdeaFilm
WEB-DL 2160p
Temir Odam Uchligi
O'zbek Tilida
BluRay, 1080p, HEVC, x265, 10bit
Kliplar To'plami
O'zbek Tilida
Rizanova
Singularity
Repack
Mechanics
Tom Raider
Repack
Xatab
Far Cry New Dawn
Repack
Xatab
Far Cry 3
Repack
Xatab
Фитнес
Россия
WEB-DL 720p
Resident Evil
Гексалогия
Repack
Godzilla 2; Mahluqlar Qiroli
O'zbek Tilida
WEBRip HEVC 720p
Olimpning Qulashi
O'zbek Tilida
BDRip
X-Odamlar Qora Qaqnus
O'zbek Tilida
BDRip 1080p
Sevishganlar
O'zbek Tilida
HDRip
Maymunlar Sayyorasi Uchlik
O'zbek Tilida
BDRip
Koko Siri
O'zbek Tilida
BDRip-AVC
Спартак
РенТВ
BDRip 720p
Shelbilar oilasi
O'zbek Tilida
x265 1080p WEBRip 10bit
Однажды на востоке
Лицензия
BDRip 1080p
Yason va Argonaftlar
O'zbek Tilida
DVDRip x264
Shelbilar oilasi
O'zbek Tilida
BluRay 1080p x264
Qotillik Uchun Uch Kun
O'zbek Tilida
BluRay 1080p x264
Ko'd 211
O'zbek + Rus + Ing
BluRay 1080p
Интрижка
iTunes
WEB-DLRip
WarFace
Лицензия
Русский
Хоббит / Властелин колец
Коллекция
BDRip 1080p H264
SamDrivers
x32/x64
Repack
Чудесный доктор
WEB-DL 1080p
Турция
Острые козырьки
H265 1080p BluRay
Uzb+Ing
S.T.A.L.K.E.R
Анталогия
Repack
Зов джунглей
Рус
WEB-DL 1080p
Ajal Poygasi
Uzb Rus Ing
BrRip 1080p H264
Yengilmas Gvardiya
O'zbek Tilida
WEB-DL 1080p H264
Suv va Olov
O'zbek Tilida
BDRip H264
S.T.A.L.K.E.R.
Анталогия Модов
GSC Game World
GTA 5
RePack
Лицензия
Tunnel: Hayot uchun xavfli
Uzb Tilida
WEB-DL 1080p
Уважаемые гости сайта! Добро Пожаловать на наш торрент трекер,где Вы можете бесплатно скачать любой Софт,Фильмы,Музыку и многое другое! А так же постоянно ведется набор модераторов и релизеров. Зарегистрируйтесь сейчас, чтобы получить доступ ко всем функциям. После регистрации или входа на сайт вы сможете создавать темы, отвечать на сообщения и скачивать файлы.

Maymunlar Sayyorasi Uchlik / Планета обезьян : Трилогия / Planet of the Apes : Trilogy [2011, 2014, 2017, Fantastik, Jangari, Triller, Drama, BDRip] O'zbek va Rus Tillarda.

Статистика раздачи
Скачал: [ 10 ]
 
     
 
 
Автор Сообщение

N.U.R.I.K.B.E.K ®

Не в сети

5417

Пол: Мужской

Стаж: 1 год 3 месяца

Сообщений: 40

Откуда: Jizzax.Paxtakor

Карма: 110

[+]

Провайдер: UzOnline UzOnline

Наличие запрета:



Награды: Нет

[Профиль] ЛС

Создавать темы 28-Авг-2019 09:53

Цитировать

--Maymunlar Sayyorasi Uchlik | Планета обезьян : Трилогия | Planet of the Apes : Trilogy--Chiqqan yili: 2011,2014,2017.
Janr: Fantastik, Jangari, Triller, Drama.
Davomiyligi: 01:44:56 | 02:10:25 | 02:20:10
Tarjima 1: Yoshlar O'zbek Tilida.
Tarjima 2: Ko'p Ovozli Rus Tili.

Maymunlar Sayyorasi 1| Планеты обезьян Восстание | Rise of the Planet of the Apes (2011) BDRip

--Chiqqan yili: 2011
Davlat: AQSH
Janr: Fantastik, Jangari, Triller, Drama.
Davomiyligi: 01:44:56
Tarjima 1: YoshlarO'zbek Tilida
Tarjima 2: Ko'p Ovozli Rus Tili--Rejissyor: Rupert Uayatt.--Rollarda: Jeyms Franko, Frieda Pinto, Jon Litgow, Brian Kox, Andy Serkis, Tyler Labin, Tom Felton, Devid Oyeloo, Jemi Xarri, Karin Konoval , Terri Notari.--Tavsif: Yosh olim maymunlarda Altsgeymer kasalligi uchun yangi davolanishni boshdan kechirmoqda. Preparat ajoyib yon ta'sirga ega: primatlarning aqlini bir necha marta oshiradi.--Videoning sifati: BDRip
Video format: MKV-Video: MPEG4 Video (H264) 904x384 23.976fps 1 545 kb/s
Audio: MP3 48000Hz stereo 128kbps O'zbek Tili
Audio 2: Dolby AC3 48000Hz 6ch 448kbpsRus Tili--

Media Info

General
Format : Matroska
Format version : Version 4 / Version 2
File size : 1.55 GiB
Duration : 1 h 44 min
Overall bit rate : 2 118 kb/s
Movie name : Rise of the Planet of the Apes (2011)
Encoded date : UTC 2019-08-19 20:19:21
Writing application : mkvmerge v15.0.0 ('Duel with the Devil') 64-bit
Writing library : libebml v1.3.5 + libmatroska v1.4.5
Video
ID : 1
Format : AVC
Format/Info : Advanced Video Codec
Format profile : High@L4.1
Format settings, CABAC : Yes
Format settings, RefFrames : 12 frames
Codec ID : V_MPEG4/ISO/AVC
Duration : 1 h 44 min
Bit rate : 1 545 kb/s
Width : 904 pixels
Height : 384 pixels
Display aspect ratio : 2.35:1
Frame rate mode : Constant
Frame rate : 23.976 (24000/1001) FPS
Color space : YUV
Chroma subsampling : 4:2:0
Bit depth : 8 bits
Scan type : Progressive
Bits/(Pixel*Frame) : 0.186
Stream size : 1.13 GiB (73%)
Title : potroks
Writing library : x264 core 146 r2538 121396c
Language : English
Default : Yes
Forced : No
Audio #1
ID : 2
Format : MPEG Audio
Format version : Version 1
Format profile : Layer 3
Mode : Joint stereo
Mode extension : MS Stereo
Codec ID : A_MPEG/L3
Codec ID/Hint : MP3
Duration : 1 h 44 min
Bit rate mode : Constant
Bit rate : 128 kb/s
Channel(s) : 2 channels
Sampling rate : 48.0 kHz
Frame rate : 41.667 FPS (1152 SPF)
Compression mode : Lossy
Stream size : 96.1 MiB (6%)
Title : O'zbek Tili
Writing library : LAME3.99.5
Language : Uzbek
Default : Yes
Forced : No
Audio #2
ID : 3
Format : AC-3
Format/Info : Audio Coding 3
Format settings, Endianness : Big
Codec ID : A_AC3
Duration : 1 h 44 min
Bit rate mode : Constant
Bit rate : 448 kb/s
Channel(s) : 6 channels
Channel positions : Front: L C R, Side: L R, LFE
Sampling rate : 48.0 kHz
Frame rate : 31.250 FPS (1536 SPF)
Bit depth : 16 bits
Compression mode : Lossy
Stream size : 336 MiB (21%)
Title : Rus Tili
Language : Russian
Service kind : Complete Main
Default : No
Forced : No
LAVHALAR

Maymunlar Sayyorasi 2| Планета обезьян: Революция / Dawn of the Planet of the Apes (2014) BDRip

--Chiqqan yili: 2014
Davlat: AQSH, Buyk Britaniya, Kanada.
Janr: Fantastik, Jangari, Triller, Drama.
Davomiyligi: 02:10:25
Tarjima 1: Yoshlar O'zbek Tilida
Tarjima 2: Ko'p Ovozli Rus Tili--Rejissyor: Mett Rivz--Rollarda: Andy Serkis, Jason Clarke, Oldman, Keri Russell, Toby Kebbell, Kodi Smit-McPhee, Kirk Acevedo, Nik Thurston, Terri Notari, Karin Konoval Gary--Tavsif: Qaysar boshchiligidagi genetik modifikatsiyalangan maymunlarning soni ortib bormoqda, ammo maymunlar o'n yil avval dahshatli epidemiya paytida omon qolishga muvaffaq bo'lgan odamlar tomonidan tahdid qilinmoqda. Dastlab, raqiblar o'rtasida nozik bir dunyo bor, lekin u qisqa muddatli bo'ladi. Monkeys va odamlar urush yoqasida, ularning qaysi biri kelajakda sayyorani butunlay boshqarishi aniq bo'ladi.--Videoning sifati: BDRip
Video format: MKV-Video: MPEG4 Video (H264) 908x490 23.976fps 1 411 kb/s
Audio: MP3 48000Hz stereo 128kbps O'zbek Tili
Audio 2: Dolby AC3 48000Hz stereo 192kbps Rus Tili --

Media Info

General
Format : Matroska
Format version : Version 4 / Version 2
File size : 1.58 GiB
Duration : 2 h 10 min
Overall bit rate : 1 733 kb/s
Movie name : Dawn of the Planet of the Apes (2014) - HELLYWOOD
Encoded date : UTC 2019-08-19 17:03:11
Writing application : mkvmerge v15.0.0 ('Duel with the Devil') 64-bit
Writing library : libebml v1.3.5 + libmatroska v1.4.5
Video
ID : 1
Format : AVC
Format/Info : Advanced Video Codec
Format profile : High@L4.1
Format settings, CABAC : Yes
Format settings, RefFrames : 12 frames
Codec ID : V_MPEG4/ISO/AVC
Duration : 2 h 10 min
Bit rate : 1 411 kb/s
Width : 908 pixels
Height : 490 pixels
Display aspect ratio : 1.85:1
Frame rate mode : Constant
Frame rate : 23.976 (24000/1001) FPS
Color space : YUV
Chroma subsampling : 4:2:0
Bit depth : 8 bits
Scan type : Progressive
Bits/(Pixel*Frame) : 0.132
Stream size : 1.28 GiB (81%)
Title : potroks
Writing library : x264 core 130 r2273 b3065e6
Language : English
Default : Yes
Forced : No
Audio #1
ID : 2
Format : MPEG Audio
Format version : Version 1
Format profile : Layer 3
Mode : Joint stereo
Codec ID : A_MPEG/L3
Codec ID/Hint : MP3
Duration : 2 h 10 min
Bit rate mode : Constant
Bit rate : 128 kb/s
Channel(s) : 2 channels
Sampling rate : 48.0 kHz
Frame rate : 41.667 FPS (1152 SPF)
Compression mode : Lossy
Stream size : 119 MiB (7%)
Title : O'zbek Tili
Writing library : LAME3.99.5
Language : Uzbek
Default : Yes
Forced : No
Audio #2
ID : 3
Format : AC-3
Format/Info : Audio Coding 3
Format settings, Endianness : Big
Codec ID : A_AC3
Duration : 2 h 10 min
Bit rate mode : Constant
Bit rate : 192 kb/s
Channel(s) : 2 channels
Channel positions : Front: L R
Sampling rate : 48.0 kHz
Frame rate : 31.250 FPS (1536 SPF)
Bit depth : 16 bits
Compression mode : Lossy
Stream size : 179 MiB (11%)
Title : Rus Tili
Language : Russian
Service kind : Complete Main
Default : No
Forced : No
LAVHALAR

Maymunlar Sayyorasi 3| Планета обезьян: Война | War for the Planet of the Apes (2017) BDRip

--Chiqqan yili: 2017
Davlat: AQSH, Kanada, Yangi Zelandiya.
Janr: Fantastik, Jangari, Triller, Drama.
Davomiyligi: 02:20:10
Tarjima 1: Yoshlar O'zbek Tilida
Tarjima 2: Ko'p Ovozli Rus Tili--Rejissyor: Mett Rivz.--Rollarda: Endi Serkis, Woody Harrelson, Stiv Zan, Karin Konoval, Amaya Miller, Terri Notari, Tai Olsson, Maykl Adamuight, Toby Kebbell, Gavriel Chavarria.--Tavsif: Genetik jihatdan modifikatsiyalangan maymunlar armiyasi yangi qiyinchilikni kutmoqda: ular shafqatsiz polkovnik boshchiligidagi odamlar armiyasi bilan o'lik jangga kirishga majbur. Uning jangchilari orasida tasavvurga yaramaydigan yo'qotishlardan so'ng, maymun rahbarlari qaysar qorong'u instinktlarga qarshi shaxsiy kurashni boshlaydi va butun turidan qasos oladi. Oxir-oqibat, u va polkovnik epik jangda uchrashishi kerak, bu esa er yuzida kim hukmronlik qilishini hal qiladi-odamlar yoki maymunlar.--Videoning sifati: BDRip
Video format: MKV-Video: MPEG4 Video (H264) 912x380 23.976fps 1 044 kb/s
Audio: MP3 48000Hz stereo 128kbps O'zbek Tili
Audio 2: Dolby AC3 48000Hz 6ch 448kbps Rus Til--

Media Info

General
Format : Matroska
Format version : Version 4 / Version 2
File size : 1.59 GiB
Duration : 2 h 20 min
Overall bit rate : 1 619 kb/s
Movie name : War for the Planet of the Apes (2017)
Encoded date : UTC 2019-08-19 16:01:38
Writing application : mkvmerge v15.0.0 ('Duel with the Devil') 64-bit
Writing library : libebml v1.3.5 + libmatroska v1.4.5
Video
ID : 1
Format : AVC
Format/Info : Advanced Video Codec
Format profile : High@L4.1
Format settings, CABAC : Yes
Format settings, RefFrames : 12 frames
Codec ID : V_MPEG4/ISO/AVC
Duration : 2 h 20 min
Bit rate : 1 044 kb/s
Width : 912 pixels
Height : 380 pixels
Display aspect ratio : 2.40:1
Frame rate mode : Constant
Frame rate : 23.976 (24000/1001) FPS
Color space : YUV
Chroma subsampling : 4:2:0
Bit depth : 8 bits
Scan type : Progressive
Bits/(Pixel*Frame) : 0.126
Stream size : 1.02 GiB (64%)
Title : potroks
Writing library : x264 core 148 r2638 7599210
Language : English
Default : Yes
Forced : No
Audio #1
ID : 2
Format : MPEG Audio
Format version : Version 1
Format profile : Layer 3
Mode : Joint stereo
Mode extension : MS Stereo
Codec ID : A_MPEG/L3
Codec ID/Hint : MP3
Duration : 2 h 20 min
Bit rate mode : Constant
Bit rate : 128 kb/s
Channel(s) : 2 channels
Sampling rate : 48.0 kHz
Frame rate : 41.667 FPS (1152 SPF)
Compression mode : Lossy
Stream size : 128 MiB (8%)
Title : O'zbek Tili
Writing library : LAME3.99.5
Language : Uzbek
Default : Yes
Forced : No
Audio #2
ID : 3
Format : AC-3
Format/Info : Audio Coding 3
Format settings, Endianness : Big
Codec ID : A_AC3
Duration : 2 h 20 min
Bit rate mode : Constant
Bit rate : 448 kb/s
Channel(s) : 6 channels
Channel positions : Front: L C R, Side: L R, LFE
Sampling rate : 48.0 kHz
Frame rate : 31.250 FPS (1536 SPF)
Bit depth : 16 bits
Compression mode : Lossy
Stream size : 449 MiB (28%)
Title : Rus Tili
Language : Russian
Service kind : Complete Main
Default : No
Forced : No
LAVHALAR
Показать сообщения:    

Текущее время: 29-Окт 00:42

Часовой пояс: UTC - 5



Вы не можете начинать темы
Вы не можете отвечать на сообщения
Вы не можете редактировать свои сообщения
Вы не можете удалять свои сообщения
Вы не можете голосовать в опросах
Вы не можете прикреплять файлы к сообщениям
Вы не можете скачивать файлы