Регистрация ·
Имя: Пароль:  
· Забыли пароль? · Вопросы от гостей
Javohir politsiyachi
O'zbek Tilida
BDRip-AVC
Агент Ева
O'zbek Tilida
WEB-Rip
Анна
iTunes
BDRip 1080p
Анна
iTunes
BDRip-AVC
Анна
iTunes
BDRip
Mulan
O'zbek Tilida
WEBRip 1080p HEVC x265
Мулан
IdeaFilm
WEB-DL 720p
Мулан
IdeaFilm
WEB-DL 1080p
Мулан
IdeaFilm
WEB-DL 2160p
Temir Odam Uchligi
O'zbek Tilida
BluRay, 1080p, HEVC, x265, 10bit
Kliplar To'plami
O'zbek Tilida
Rizanova
Singularity
Repack
Mechanics
Tom Raider
Repack
Xatab
Far Cry New Dawn
Repack
Xatab
Far Cry 3
Repack
Xatab
Фитнес
Россия
WEB-DL 720p
Resident Evil
Гексалогия
Repack
Godzilla 2; Mahluqlar Qiroli
O'zbek Tilida
WEBRip HEVC 720p
Olimpning Qulashi
O'zbek Tilida
BDRip
X-Odamlar Qora Qaqnus
O'zbek Tilida
BDRip 1080p
Sevishganlar
O'zbek Tilida
HDRip
Maymunlar Sayyorasi Uchlik
O'zbek Tilida
BDRip
Koko Siri
O'zbek Tilida
BDRip-AVC
Спартак
РенТВ
BDRip 720p
Shelbilar oilasi
O'zbek Tilida
x265 1080p WEBRip 10bit
Однажды на востоке
Лицензия
BDRip 1080p
Yason va Argonaftlar
O'zbek Tilida
DVDRip x264
Shelbilar oilasi
O'zbek Tilida
BluRay 1080p x264
Qotillik Uchun Uch Kun
O'zbek Tilida
BluRay 1080p x264
Ko'd 211
O'zbek + Rus + Ing
BluRay 1080p
Интрижка
iTunes
WEB-DLRip
WarFace
Лицензия
Русский
Хоббит / Властелин колец
Коллекция
BDRip 1080p H264
SamDrivers
x32/x64
Repack
Чудесный доктор
WEB-DL 1080p
Турция
Острые козырьки
H265 1080p BluRay
Uzb+Ing
S.T.A.L.K.E.R
Анталогия
Repack
Зов джунглей
Рус
WEB-DL 1080p
Ajal Poygasi
Uzb Rus Ing
BrRip 1080p H264
Yengilmas Gvardiya
O'zbek Tilida
WEB-DL 1080p H264
Suv va Olov
O'zbek Tilida
BDRip H264
S.T.A.L.K.E.R.
Анталогия Модов
GSC Game World
GTA 5
RePack
Лицензия
Tunnel: Hayot uchun xavfli
Uzb Tilida
WEB-DL 1080p
Уважаемые гости сайта! Добро Пожаловать на наш торрент трекер,где Вы можете бесплатно скачать любой Софт,Фильмы,Музыку и многое другое! А так же постоянно ведется набор модераторов и релизеров. Зарегистрируйтесь сейчас, чтобы получить доступ ко всем функциям. После регистрации или входа на сайт вы сможете создавать темы, отвечать на сообщения и скачивать файлы.

Sevishganlar / Влюблённые / Dilwale (Roxit Shetti) [2015, Jangari, Komediya, Melodrama, HDRip] O'zbek Tilida.

Статистика раздачи
Скачал: [ 4 ]
 
     
 
 
Автор Сообщение

N.U.R.I.K.B.E.K ®

Не в сети

5417

Пол: Мужской

Стаж: 1 год 2 месяца

Сообщений: 36

Откуда: Jizzax.Paxtakor

Карма: 110

[+]

Провайдер: UzOnline UzOnline

Наличие запрета:



Награды: Нет

[Профиль] ЛС

Создавать темы 10-Сен-2019 07:08

Цитировать

- --Sevishganlar | Влюблённые | Dilwale--Chiqqan yili: 2015
Davlat: Xindiston
Janr: Jangari, Komediya, Melodrama.
Davomiyligi: 02:33:31
Tarjima: UZHD O'zbek Tilida.--Rejissyor: Roxit Shetti.--Rollarda: Shohruh Xon, Kajol, Varun Dhawan, Kriti Sanon, Johnny Lever, Sanjay Mishra, Boman Erani, Mukesh Tiwari, Vinod Khanna
Tavsif: Vir Ishuni uchratganda uning quloqlarini sevib qoladi. Qiz ham tez orada unga javob beradi. Ammo Vira akasi Rajga ega, Isha esa dunyoning singlisi. Sevuvchilar qarindoshlariga his-tuyg'ularini aytib berishga qaror qilganda, bu narsa kutilmagan bir burilish qiladi! Sevgi, do'stlik, nafrat va g'amxo'rlik haqida film. Biz Shohruh Xon va Kajolning noyob juftligiga qaraymiz!!!--Videoning sifati: HDRip
Video format: MKV--Video: Xvid 720x304 24fps 1 576 kb/s
Audio: MP3 48000Hz stereo 128kbps O'zbek Tili

Media Info

General
Format : Matroska
Format version : Version 4 / Version 2
File size : 1.83 GiB
Duration : 2 h 33 min
Overall bit rate : 1 706 kb/s
Encoded date : UTC 2019-09-09 14:25:42
Writing application : mkvmerge v15.0.0 ('Duel with the Devil') 64-bit
Writing library : libebml v1.3.5 + libmatroska v1.4.5
Video
ID : 1
Format : MPEG-4 Visual
Format profile : Advanced Simple@L5
Format settings, BVOP : 1
Format settings, QPel : No
Format settings, GMC : No warppoints
Format settings, Matrix : Default (MPEG)
Codec ID : V_MS/VFW/FOURCC / XVID
Codec ID/Hint : XviD
Duration : 2 h 33 min
Bit rate : 1 576 kb/s
Width : 720 pixels
Height : 304 pixels
Display aspect ratio : 2.35:1
Frame rate mode : Constant
Frame rate : 24.000 FPS
Color space : YUV
Chroma subsampling : 4:2:0
Bit depth : 8 bits
Scan type : Progressive
Compression mode : Lossy
Bits/(Pixel*Frame) : 0.300
Stream size : 1.69 GiB (92%)
Writing library : XviD 73
Default : Yes
Forced : No
Audio
ID : 2
Format : MPEG Audio
Format version : Version 1
Format profile : Layer 3
Mode : Joint stereo
Mode extension : MS Stereo
Codec ID : A_MPEG/L3
Codec ID/Hint : MP3
Duration : 2 h 33 min
Bit rate mode : Constant
Bit rate : 128 kb/s
Channel(s) : 2 channels
Sampling rate : 48.0 kHz
Frame rate : 41.667 FPS (1152 SPF)
Compression mode : Lossy
Stream size : 141 MiB (8%)
Title : O'zbek Tili
Language : Uzbek
Default : Yes
Forced : No
LAVHALAR
Показать сообщения:    

Текущее время: 19-Сен 11:19

Часовой пояс: UTC - 5



Вы не можете начинать темы
Вы не можете отвечать на сообщения
Вы не можете редактировать свои сообщения
Вы не можете удалять свои сообщения
Вы не можете голосовать в опросах
Вы не можете прикреплять файлы к сообщениям
Вы не можете скачивать файлы