Регистрация ·
Имя: Пароль:  
· Забыли пароль? · Вопросы от гостей
Kliplar To'plami
O'zbek Tilida
Rizanova
12 Round
O'zbek Tilida
BluRay 1080p
Qo'riqchi ayol
O'zbek Tilida
BluRay 1080p
SHAFT
O'zbek Tilida
BDRip
SHAFT
O'zbek Tilida
WEBRip 1080p
Javohir politsiyachi
O'zbek Tilida
BDRip-AVC
So'nggi Ritsarlar
O'zbek Tilida
BluRay 1080p
Агент Ева
O'zbek Tilida
WEB-Rip
Анна
iTunes
BDRip 1080p
Анна
iTunes
BDRip-AVC
Анна
iTunes
BDRip
Mulan
O'zbek Tilida
WEBRip 1080p HEVC x265
Мулан
IdeaFilm
WEB-DL 720p
Мулан
IdeaFilm
WEB-DL 1080p
Мулан
IdeaFilm
WEB-DL 2160p
Temir Odam Uchligi
O'zbek Tilida
BluRay, 1080p, HEVC, x265, 10bit
Kliplar To'plami
O'zbek Tilida
Rizanova
Singularity
Repack
Mechanics
Tom Raider
Repack
Xatab
Far Cry New Dawn
Repack
Xatab
Far Cry 3
Repack
Xatab
Фитнес
Россия
WEB-DL 720p
Resident Evil
Гексалогия
Repack
Godzilla 2; Mahluqlar Qiroli
O'zbek Tilida
WEBRip HEVC 720p
Olimpning Qulashi
O'zbek Tilida
BDRip
X-Odamlar Qora Qaqnus
O'zbek Tilida
BDRip 1080p
Sevishganlar
O'zbek Tilida
HDRip
Maymunlar Sayyorasi Uchlik
O'zbek Tilida
BDRip
Koko Siri
O'zbek Tilida
BDRip-AVC
Спартак
РенТВ
BDRip 720p
Shelbilar oilasi
O'zbek Tilida
x265 1080p WEBRip 10bit
Однажды на востоке
Лицензия
BDRip 1080p
Yason va Argonaftlar
O'zbek Tilida
DVDRip x264
Shelbilar oilasi
O'zbek Tilida
BluRay 1080p x264
Qotillik Uchun Uch Kun
O'zbek Tilida
BluRay 1080p x264
Ko'd 211
O'zbek + Rus + Ing
BluRay 1080p
Интрижка
iTunes
WEB-DLRip
WarFace
Лицензия
Русский
Хоббит / Властелин колец
Коллекция
BDRip 1080p H264
SamDrivers
x32/x64
Repack
Чудесный доктор
WEB-DL 1080p
Турция
Острые козырьки
H265 1080p BluRay
Uzb+Ing
S.T.A.L.K.E.R
Анталогия
Repack
Зов джунглей
Рус
WEB-DL 1080p
Ajal Poygasi
Uzb Rus Ing
BrRip 1080p H264
Yengilmas Gvardiya
O'zbek Tilida
WEB-DL 1080p H264
Suv va Olov
O'zbek Tilida
BDRip H264
S.T.A.L.K.E.R.
Анталогия Модов
GSC Game World
GTA 5
RePack
Лицензия
Tunnel: Hayot uchun xavfli
Uzb Tilida
WEB-DL 1080p

До нового года осталось

Уважаемые гости сайта! Добро Пожаловать на наш торрент трекер,где Вы можете бесплатно скачать любой Софт,Фильмы,Музыку и многое другое! А так же постоянно ведется набор модераторов и релизеров. Зарегистрируйтесь сейчас, чтобы получить доступ ко всем функциям. После регистрации или входа на сайт вы сможете создавать темы, отвечать на сообщения и скачивать файлы.

Сборник советских комедий : 60 FPS (Леонид Гайдай , Александр Серый) [1971,1973,1967,1965,1961, СССР , комедия, драма , семейный , фантастика, BDRip-AVC 60FPS]

Статистика раздачи
Нет
Сегодня идет свободное скачивание без начисления Download
 
     
 
 
Автор Сообщение

Admin ®

Не в сети

2

VIP пользователь

Пол: Мужской

Стаж: 4 года 6 месяцев

Сообщений: 151

Карма: 787

[+]

Провайдер: UzOnline UzOnline

Тарифный план: UNLIME 20 Mbit/sekund

Наличие запрета:



Награды: Нет

[Профиль] ЛС

Создавать темы 11-Сен-2019 11:27

Цитировать

Сборник советских комедий (Леонид Гайдай , Александр Серый) [1971,1973,1967,1965,1961, СССР , комедия, драма , семейный , фантастика,]

Джентльмены удачи

Джентльмены удачи
Год выпуска: 1971
Страна: СССР
Жанр: комедия, драма
Продолжительность: 01:26:43
Перевод: Не требуется
Режиссер: Александр Серый
В ролях: Евгений Леонов, Георгий Вицин, Раднэр Муратов, Савелий Крамаров, Наталья Фатеева, Эраст Гарин, Николай Олялин, Анатолий Папанов, Павел Шпрингфельд, Любовь Соколова
Описание: Заведующему детсадом Трошкину фатально не повезло: он оказался как две капли воды похож на бандита по кличке «Доцент», похитившего уникальный шлем Александра Македонского.
Милиция внедряет добряка Трошкина в воровскую среду - и ему ничего не остается, кроме как старательно изображать своего двойника-злодея, путая всех окружающих. Со временем он настолько блестяще входит в роль, что сам начинает порой приходить в ужас. Между тем, жизни его угрожает смертельная опасность...
Качество: BDRip-AVC 60FPS
Формат: MKV
Видео кодек: H.264
Аудио кодек: AC3
Видео: MPEG4 Video (H264) 752x568 59.94fps (4:3) 3500 kb/s
Аудио: Dolby AC3 48000Hz 6ch 640kbps

MediaInfo

Код:
General
Unique ID : 196547568442568809722656312012802995989 (0x93DDAF4C2B64331CA6846408C899B715)
Complete name : E:\Фильмы , Мультфильмы\Советские фильмы\60 FPS\Джентельмены удачи (1971) BDRip-AVC 60FPS.mkv
Format : Matroska
Format version : Version 4 / Version 2
File size : 2.51 GiB
Duration : 1 h 26 min
Overall bit rate : 4 144 kb/s
Movie name : Tiberiumsun69
Encoded date : UTC 2015-12-31 06:51:46
Writing application : mkvmerge v8.3.0 ('Over the Horizon') 64bit
Writing library : libebml v1.3.1 + libmatroska v1.4.2
Cover : Yes
Attachments : Cover.png
Video
ID : 1
Format : AVC
Format/Info : Advanced Video Codec
Format profile : High@L4.1
Format settings, CABAC : Yes
Format settings, RefFrames : 4 frames
Codec ID : V_MPEG4/ISO/AVC
Duration : 1 h 26 min
Bit rate : 3 500 kb/s
Width : 752 pixels
Height : 568 pixels
Display aspect ratio : 4:3
Frame rate mode : Constant
Frame rate : 59.940 (59940/1000) FPS
Color space : YUV
Chroma subsampling : 4:2:0
Bit depth : 8 bits
Scan type : Progressive
Bits/(Pixel*Frame) : 0.137
Stream size : 2.07 GiB (83%)
Title : Tiberiumsun69
Writing library : x264 core 146 r2538 121396c
Encoding settings : cabac=1 / ref=3 / deblock=1:0:0 / analyse=0x3:0x113 / me=umh / subme=9 / psy=1 / psy_rd=1.00:0.10 / mixed_ref=1 / me_range=32 / chroma_me=1 / trellis=2 / 8x8dct=1 / cqm=0 / deadzone=21,11 / fast_pskip=0 / chroma_qp_offset=-3 / threads=12 / lookahead_threads=3 / sliced_threads=0 / nr=0 / decimate=1 / interlaced=0 / bluray_compat=0 / constrained_intra=0 / bframes=16 / b_pyramid=2 / b_adapt=2 / b_bias=0 / direct=3 / weightb=1 / open_gop=0 / weightp=2 / keyint=250 / keyint_min=25 / scenecut=40 / intra_refresh=0 / rc_lookahead=40 / rc=2pass / mbtree=0 / bitrate=3500 / ratetol=1.0 / qcomp=0.60 / qpmin=0 / qpmax=69 / qpstep=4 / cplxblur=20.0 / qblur=0.5 / vbv_maxrate=14000 / vbv_bufsize=14000 / nal_hrd=none / filler=0 / ip_ratio=1.40 / pb_ratio=1.30 / aq=1:1.00
Language : English
Default : Yes
Forced : No
Audio
ID : 2
Format : AC-3
Format/Info : Audio Coding 3
Format settings, Endianness : Big
Codec ID : A_AC3
Duration : 1 h 26 min
Bit rate mode : Constant
Bit rate : 640 kb/s
Channel(s) : 6 channels
Channel positions : Front: L C R, Side: L R, LFE
Sampling rate : 48.0 kHz
Frame rate : 31.250 FPS (1536 SPF)
Bit depth : 16 bits
Compression mode : Lossy
Stream size : 397 MiB (15%)
Title : Оригинал
Language : Russian
Service kind : Complete Main
Default : Yes
Forced : No
Text
ID : 3
Format : UTF-8
Codec ID : S_TEXT/UTF8
Codec ID/Info : UTF-8 Plain Text
Title : Полные
Language : Russian
Default : No
Forced : No
Menu
00:00:00.000 : en:Chapter 1
00:07:36.956 : en:Chapter 2
00:14:13.227 : en:Chapter 3
00:17:12.573 : en:Chapter 4
00:24:43.064 : en:Chapter 5
00:29:42.489 : en:Chapter 6
00:33:08.277 : en:Chapter 7
00:39:24.653 : en:Chapter 8
00:42:40.182 : en:Chapter 9
00:48:23.901 : en:Chapter 10
00:58:45.396 : en:Chapter 11
01:03:47.698 : en:Chapter 12
01:04:44.755 : en:Chapter 13
01:14:36.930 : en:Chapter 14
01:20:04.508 : en:Chapter 15
01:24:35.403 : en:Chapter 16

Скриншоты

Иван Васильевич меняет профессию

Иван Васильевич меняет профессию
Год выпуска: 1973
Страна: СССР
Жанр: фантастика, комедия, приключения, семейный
Продолжительность: 01:31:38
Перевод: Не требуется
Режиссер: Леонид Гайдай
В ролях: Александр Демьяненко, Юрий Яковлев, Леонид Куравлёв, Наталья Крачковская, Савелий Крамаров, Наталья Селезнёва, Владимир Этуш, Михаил Пуговкин, Сергей Филиппов, Наталья Кустинская, Эдуард Бредун, Валентин Грачев, Леонид Гайдай, Виктор Шульгин, Виктор Уральский, Алексей Калабулин, Юрий Чернов, Наталья Гурзо
Описание: Инженер-изобретатель Тимофеев сконструировал машину времени, которая соединила его квартиру с далеким шестнадцатым веком — точнее, с палатами государя Ивана Грозного. Туда-то и попадают тезка царя пенсионер-общественник Иван Васильевич Бунша и квартирный вор Жорж Милославский.
На их место в двадцатом веке «переселяется» великий государь. Поломка машины приводит ко множеству неожиданных и забавных событий…
Качество: BDRip-AVC 60FPS
Формат: MKV
Видео кодек: H.264
Аудио кодек: AC3
Видео: MPEG4 Video (H264) 784x568 59.94fps (1.380) 3600 kb/s
Аудио: Dolby AC3 48000Hz 6ch 640kbps

MediaInfo

Код:
General
Unique ID : 227892221943025815062668696117404838262 (0xAB727207EAB6A0E29BB730D647312976)
Complete name : E:\Фильмы , Мультфильмы\Советские фильмы\60 FPS\Иван Васильевич меняет профессию BDRip-AVC 60FPS.mkv
Format : Matroska
Format version : Version 4 / Version 2
File size : 2.72 GiB
Duration : 1 h 31 min
Overall bit rate : 4 246 kb/s
Movie name : Tiberiumsun69
Encoded date : UTC 2015-12-31 07:11:29
Writing application : mkvmerge v8.3.0 ('Over the Horizon') 64bit
Writing library : libebml v1.3.1 + libmatroska v1.4.2
Cover : Yes
Attachments : Cover.png
Video
ID : 1
Format : AVC
Format/Info : Advanced Video Codec
Format profile : High@L4.1
Format settings, CABAC : Yes
Format settings, RefFrames : 4 frames
Codec ID : V_MPEG4/ISO/AVC
Duration : 1 h 31 min
Bit rate : 3 600 kb/s
Width : 784 pixels
Height : 568 pixels
Display aspect ratio : 1.380
Frame rate mode : Constant
Frame rate : 59.940 (59940/1000) FPS
Color space : YUV
Chroma subsampling : 4:2:0
Bit depth : 8 bits
Scan type : Progressive
Bits/(Pixel*Frame) : 0.135
Stream size : 2.25 GiB (83%)
Title : Tiberiumsun69
Writing library : x264 core 146 r2538 121396c
Encoding settings : cabac=1 / ref=3 / deblock=1:0:0 / analyse=0x3:0x113 / me=umh / subme=9 / psy=1 / psy_rd=1.00:0.10 / mixed_ref=1 / me_range=32 / chroma_me=1 / trellis=2 / 8x8dct=1 / cqm=0 / deadzone=21,11 / fast_pskip=0 / chroma_qp_offset=-3 / threads=12 / lookahead_threads=3 / sliced_threads=0 / nr=0 / decimate=1 / interlaced=0 / bluray_compat=0 / constrained_intra=0 / bframes=16 / b_pyramid=2 / b_adapt=2 / b_bias=0 / direct=3 / weightb=1 / open_gop=0 / weightp=2 / keyint=250 / keyint_min=25 / scenecut=40 / intra_refresh=0 / rc_lookahead=40 / rc=2pass / mbtree=0 / bitrate=3600 / ratetol=1.0 / qcomp=0.60 / qpmin=0 / qpmax=69 / qpstep=4 / cplxblur=20.0 / qblur=0.5 / vbv_maxrate=14000 / vbv_bufsize=14000 / nal_hrd=none / filler=0 / ip_ratio=1.40 / pb_ratio=1.30 / aq=1:1.00
Language : English
Default : Yes
Forced : No
Audio
ID : 2
Format : AC-3
Format/Info : Audio Coding 3
Format settings, Endianness : Big
Codec ID : A_AC3
Duration : 1 h 31 min
Bit rate mode : Constant
Bit rate : 640 kb/s
Channel(s) : 6 channels
Channel positions : Front: L C R, Side: L R, LFE
Sampling rate : 48.0 kHz
Frame rate : 31.250 FPS (1536 SPF)
Bit depth : 16 bits
Compression mode : Lossy
Stream size : 420 MiB (15%)
Title : Оригинал
Language : Russian
Service kind : Complete Main
Default : Yes
Forced : No
Menu
00:00:00.000 : en:Chapter 1
00:08:01.689 : en:Chapter 2
00:12:06.684 : en:Chapter 3
00:17:05.566 : en:Chapter 4
00:22:05.699 : en:Chapter 5
00:27:41.660 : en:Chapter 6
00:31:35.810 : en:Chapter 7
00:37:12.313 : en:Chapter 8
00:46:36.126 : en:Chapter 9
00:49:43.063 : en:Chapter 10
00:59:18.638 : en:Chapter 11
01:06:17.098 : en:Chapter 12
01:09:48.225 : en:Chapter 13
01:18:32.624 : en:Chapter 14
01:23:40.015 : en:Chapter 15
01:28:22.672 : en:Chapter 16

Скриншоты

Кавказская пленница, или Новые приключения Шурика

Кавказская пленница, или Новые приключения Шурика
Год выпуска: 1967
Страна: СССР
Жанр: комедия, семейный
Продолжительность: 01:19:53
Перевод: Не требуется
Режиссер: Леонид Гайдай
В ролях: Александр Демьяненко, Наталья Варлей, Руслан Ахметов, Юрий Никулин, Георгий Вицин, Евгений Моргунов, Владимир Этуш, Фрунзик Мкртчян, Нина Гребешкова, Михаил Глузский
Описание: Отправившись в одну из горных республик собирать фольклор, герой фильма Шурик влюбляется в симпатичную девушку - «спортсменку, отличницу, и просто красавицу». Но ее неожиданно похищают, чтобы насильно выдать замуж. Наивный Шурик не сразу смог сообразить, что творится у него под носом, - однако затем отважно ринулся освобождать «кавказскую пленницу»..
Качество: BDRip-AVC 60FPS
Формат: MKV
Видео кодек: H.264
Аудио кодек: AC3
Видео: MPEG4 Video (H264) 768x560 59.94fps (1.371) 3500 kb/s
Аудио: Dolby AC3 48000Hz 6ch 640kbps

MediaInfo

Код:
General
Unique ID : 252080738128796060671243365193327961866 (0xBDA4FBF44E14E280B5DC6C1FA39DE70A)
Complete name : E:\Фильмы , Мультфильмы\Советские фильмы\60 FPS\Кавказская пленница (1967) BDRip-AVC 60FPS.mkv
Format : Matroska
Format version : Version 4 / Version 2
File size : 2.31 GiB
Duration : 1 h 19 min
Overall bit rate : 4 146 kb/s
Movie name : Tiberiumsun69
Encoded date : UTC 2015-12-31 06:58:09
Writing application : mkvmerge v8.3.0 ('Over the Horizon') 64bit
Writing library : libebml v1.3.1 + libmatroska v1.4.2
Cover : Yes
Attachments : Cover.png
Video
ID : 1
Format : AVC
Format/Info : Advanced Video Codec
Format profile : High@L4.1
Format settings, CABAC : Yes
Format settings, RefFrames : 4 frames
Codec ID : V_MPEG4/ISO/AVC
Duration : 1 h 19 min
Bit rate : 3 500 kb/s
Width : 768 pixels
Height : 560 pixels
Display aspect ratio : 1.371
Frame rate mode : Constant
Frame rate : 59.940 (59940/1000) FPS
Color space : YUV
Chroma subsampling : 4:2:0
Bit depth : 8 bits
Scan type : Progressive
Bits/(Pixel*Frame) : 0.136
Stream size : 1.91 GiB (83%)
Title : Tiberiumsun69
Writing library : x264 core 146 r2538 121396c
Encoding settings : cabac=1 / ref=3 / deblock=1:0:0 / analyse=0x3:0x113 / me=umh / subme=9 / psy=1 / psy_rd=1.00:0.10 / mixed_ref=1 / me_range=32 / chroma_me=1 / trellis=2 / 8x8dct=1 / cqm=0 / deadzone=21,11 / fast_pskip=0 / chroma_qp_offset=-3 / threads=12 / lookahead_threads=3 / sliced_threads=0 / nr=0 / decimate=1 / interlaced=0 / bluray_compat=0 / constrained_intra=0 / bframes=16 / b_pyramid=2 / b_adapt=2 / b_bias=0 / direct=3 / weightb=1 / open_gop=0 / weightp=2 / keyint=250 / keyint_min=25 / scenecut=40 / intra_refresh=0 / rc_lookahead=40 / rc=2pass / mbtree=0 / bitrate=3500 / ratetol=1.0 / qcomp=0.60 / qpmin=0 / qpmax=69 / qpstep=4 / cplxblur=20.0 / qblur=0.5 / vbv_maxrate=14000 / vbv_bufsize=14000 / nal_hrd=none / filler=0 / ip_ratio=1.40 / pb_ratio=1.30 / aq=1:1.00
Language : English
Default : Yes
Forced : No
Audio
ID : 2
Format : AC-3
Format/Info : Audio Coding 3
Format settings, Endianness : Big
Codec ID : A_AC3
Duration : 1 h 19 min
Bit rate mode : Constant
Bit rate : 640 kb/s
Channel(s) : 6 channels
Channel positions : Front: L C R, Side: L R, LFE
Sampling rate : 48.0 kHz
Frame rate : 31.250 FPS (1536 SPF)
Bit depth : 16 bits
Compression mode : Lossy
Stream size : 366 MiB (15%)
Title : Оригинал
Language : Russian
Service kind : Complete Main
Default : Yes
Forced : No
Text
ID : 3
Format : UTF-8
Codec ID : S_TEXT/UTF8
Codec ID/Info : UTF-8 Plain Text
Title : Полные
Language : Russian
Default : No
Forced : No
Menu
00:00:00.000 : ru:Chapter 01
00:05:52.477 : ru:Chapter 02
00:09:11.717 : ru:Chapter 03
00:11:31.190 : ru:Chapter 04
00:16:08.550 : ru:Chapter 05
00:23:07.969 : ru:Chapter 06
00:26:04.729 : ru:Chapter 07
00:31:01.234 : ru:Chapter 08
00:33:40.435 : ru:Chapter 09
00:38:45.906 : ru:Chapter 10
00:44:11.148 : ru:Chapter 11
00:51:10.734 : ru:Chapter 12
00:57:19.227 : ru:Chapter 13
01:00:15.069 : ru:Chapter 14
01:13:13.430 : ru:Chapter 15
01:18:14.856 : ru:Chapter 16
01:19:52.871 : ru:Chapter 17

Скриншоты

Операция «Ы» и другие приключения Шурика

Операция «Ы» и другие приключения Шурика
Год выпуска: 1965
Страна: СССР
Жанр: Мелодрама, комедия, криминал
Продолжительность: 01:34:34
Перевод: Не требуется
Режиссер: Леонид Гайдай
В ролях: Александр Демьяненко, Наталья Селезнёва, Алексей Смирнов, Юрий Никулин, Евгений Моргунов, Георгий Вицин, Михаил Пуговкин, Виктор Павлов, Владимир Басов, Рина Зеленая
Описание: Фильм состоит из трех новелл, объединенных фигурой главного героя Шурика, попадающего в самые невероятные ситуации. В «Напарнике» Шурик сражается с хулиганом Верзилой; в «Наваждении» весьма оригинальным способом готовится к экзамену; в «Операции «Ы» предотвращает «ограбление века», на которое идет знаменитая тройка - Балбес, Трус и Бывалый.
Качество: BDRip-AVC 60FPS
Формат: MKV
Видео кодек: H.264
Аудио кодек: AC3
Видео: MPEG4 Video (H264) 768x584 59.94fps (4:3) 3700 kb/s
Аудио: Dolby AC3 48000Hz 6ch 640kbps

MediaInfo

Код:
General
Unique ID : 221518889610857856232806009251569377613 (0xA6A6FC7C82F7EB79AAE477B9F818A14D)
Complete name : E:\Фильмы , Мультфильмы\Советские фильмы\60 FPS\Операция Ы и др. приключения Шурика BDRip-AVC 60FPS.mkv
Format : Matroska
Format version : Version 4 / Version 2
File size : 2.87 GiB
Duration : 1 h 34 min
Overall bit rate : 4 346 kb/s
Movie name : Tiberiumsun69
Encoded date : UTC 2015-12-31 06:55:47
Writing application : mkvmerge v8.3.0 ('Over the Horizon') 64bit
Writing library : libebml v1.3.1 + libmatroska v1.4.2
Cover : Yes
Attachments : Cover.png
Video
ID : 1
Format : AVC
Format/Info : Advanced Video Codec
Format profile : High@L4.1
Format settings, CABAC : Yes
Format settings, RefFrames : 4 frames
Codec ID : V_MPEG4/ISO/AVC
Duration : 1 h 34 min
Bit rate : 3 700 kb/s
Width : 768 pixels
Height : 584 pixels
Display aspect ratio : 4:3
Frame rate mode : Constant
Frame rate : 59.940 (59940/1000) FPS
Color space : YUV
Chroma subsampling : 4:2:0
Bit depth : 8 bits
Scan type : Progressive
Bits/(Pixel*Frame) : 0.138
Stream size : 2.39 GiB (83%)
Title : Tiberiumsun69
Writing library : x264 core 146 r2538 121396c
Encoding settings : cabac=1 / ref=3 / deblock=1:0:0 / analyse=0x3:0x113 / me=umh / subme=9 / psy=1 / psy_rd=1.00:0.10 / mixed_ref=1 / me_range=32 / chroma_me=1 / trellis=2 / 8x8dct=1 / cqm=0 / deadzone=21,11 / fast_pskip=0 / chroma_qp_offset=-3 / threads=12 / lookahead_threads=3 / sliced_threads=0 / nr=0 / decimate=1 / interlaced=0 / bluray_compat=0 / constrained_intra=0 / bframes=16 / b_pyramid=2 / b_adapt=2 / b_bias=0 / direct=3 / weightb=1 / open_gop=0 / weightp=2 / keyint=250 / keyint_min=25 / scenecut=40 / intra_refresh=0 / rc_lookahead=40 / rc=2pass / mbtree=0 / bitrate=3700 / ratetol=1.0 / qcomp=0.60 / qpmin=0 / qpmax=69 / qpstep=4 / cplxblur=20.0 / qblur=0.5 / vbv_maxrate=14000 / vbv_bufsize=14000 / nal_hrd=none / filler=0 / ip_ratio=1.40 / pb_ratio=1.30 / aq=1:1.00
Language : English
Default : Yes
Forced : No
Audio
ID : 2
Format : AC-3
Format/Info : Audio Coding 3
Format settings, Endianness : Big
Codec ID : A_AC3
Duration : 1 h 34 min
Bit rate mode : Constant
Bit rate : 640 kb/s
Channel(s) : 6 channels
Channel positions : Front: L C R, Side: L R, LFE
Sampling rate : 48.0 kHz
Frame rate : 31.250 FPS (1536 SPF)
Bit depth : 16 bits
Compression mode : Lossy
Stream size : 433 MiB (15%)
Title : Оригинал
Language : Russian
Service kind : Complete Main
Default : No
Forced : No
Text
ID : 3
Format : UTF-8
Codec ID : S_TEXT/UTF8
Codec ID/Info : UTF-8 Plain Text
Title : Полные
Language : Russian
Default : No
Forced : No
Menu
00:00:00.000 : en:Chapter 1
00:03:46.935 : en:Chapter 2
00:08:52.615 : en:Chapter 3
00:13:58.629 : en:Chapter 4
00:17:53.322 : en:Chapter 5
00:25:03.502 : en:Chapter 6
00:31:35.894 : en:Chapter 7
00:35:16.948 : en:Chapter 8
00:41:43.584 : en:Chapter 9
00:45:58.630 : en:Chapter 10
00:52:43.160 : en:Chapter 11
00:57:14.055 : en:Chapter 12
01:03:11.037 : en:Chapter 13
01:06:33.489 : en:Chapter 14
01:13:24.608 : en:Chapter 15
01:15:08.212 : en:Chapter 16
01:20:51.513 : en:Chapter 17
01:29:02.003 : en:Chapter 18
01:34:28.079 : en:Chapter 19

Скриншоты

Пёс Барбос и необычный кросс

Пёс Барбос и необычный кросс
Год выпуска: 1961
Страна: СССР
Жанр: Комедия, короткометражка
Продолжительность: 00:10:28
Перевод: Не требуется
Режиссер: Леонид Гайдай
В ролях: Георгий Вицин, Юрий Никулин, Евгений Моргунов
Описание: Что есть главное средство для поддержания мужской дружбы и просто для увлекательного времяпрепровождения? Правильно, это рыбалка. Трус, Балбес и Бывалый решили испытать эту радость жизни на себе, но на свою беду взяли они с собой пса Барбоса..
Качество: BDRip-AVC 60FPS
Формат: MKV
Видео кодек: H.264
Аудио кодек: AC3
Видео: MPEG4 Video (H264) 768x560 59.94fps (1.371) 3500 kb/s
Аудио: Dolby AC3 48000Hz 6ch 640kbps

MediaInfo

Код:
General
Unique ID : 253727191136699148308924984138808992794 (0xBEE2145ADE55EF8B9C4B65E41C64A41A)
Complete name : E:\Фильмы , Мультфильмы\Советские фильмы\60 FPS\Пес Барбос и необыкновенный кросс BDRip-AVC 60FPS.mkv
Format : Matroska
Format version : Version 4 / Version 2
File size : 311 MiB
Duration : 10 min 28 s
Overall bit rate : 4 154 kb/s
Movie name : Tiberiumsun69
Encoded date : UTC 2015-12-31 07:01:41
Writing application : mkvmerge v8.3.0 ('Over the Horizon') 64bit
Writing library : libebml v1.3.1 + libmatroska v1.4.2
Cover : Yes
Attachments : Cover.png
Video
ID : 1
Format : AVC
Format/Info : Advanced Video Codec
Format profile : High@L4.1
Format settings, CABAC : Yes
Format settings, RefFrames : 4 frames
Codec ID : V_MPEG4/ISO/AVC
Duration : 10 min 28 s
Bit rate : 3 500 kb/s
Width : 768 pixels
Height : 560 pixels
Display aspect ratio : 1.371
Frame rate mode : Constant
Frame rate : 59.940 (59940/1000) FPS
Color space : YUV
Chroma subsampling : 4:2:0
Bit depth : 8 bits
Scan type : Progressive
Bits/(Pixel*Frame) : 0.136
Stream size : 257 MiB (83%)
Title : Tiberiumsun69
Writing library : x264 core 146 r2538 121396c
Encoding settings : cabac=1 / ref=3 / deblock=1:0:0 / analyse=0x3:0x113 / me=umh / subme=9 / psy=1 / psy_rd=1.00:0.10 / mixed_ref=1 / me_range=32 / chroma_me=1 / trellis=2 / 8x8dct=1 / cqm=0 / deadzone=21,11 / fast_pskip=0 / chroma_qp_offset=-3 / threads=12 / lookahead_threads=3 / sliced_threads=0 / nr=0 / decimate=1 / interlaced=0 / bluray_compat=0 / constrained_intra=0 / bframes=16 / b_pyramid=2 / b_adapt=2 / b_bias=0 / direct=3 / weightb=1 / open_gop=0 / weightp=2 / keyint=250 / keyint_min=25 / scenecut=40 / intra_refresh=0 / rc_lookahead=40 / rc=2pass / mbtree=0 / bitrate=3500 / ratetol=1.0 / qcomp=0.60 / qpmin=0 / qpmax=69 / qpstep=4 / cplxblur=20.0 / qblur=0.5 / vbv_maxrate=14000 / vbv_bufsize=14000 / nal_hrd=none / filler=0 / ip_ratio=1.40 / pb_ratio=1.30 / aq=1:1.00
Language : English
Default : Yes
Forced : No
Audio
ID : 2
Format : AC-3
Format/Info : Audio Coding 3
Format settings, Endianness : Big
Codec ID : A_AC3
Duration : 10 min 28 s
Bit rate mode : Constant
Bit rate : 640 kb/s
Channel(s) : 6 channels
Channel positions : Front: L C R, Side: L R, LFE
Sampling rate : 48.0 kHz
Frame rate : 31.250 FPS (1536 SPF)
Bit depth : 16 bits
Compression mode : Lossy
Stream size : 47.9 MiB (15%)
Title : Оригинал
Language : Russian
Service kind : Complete Main
Default : Yes
Forced : No

Скриншоты

Самогонщики

Самогонщики
Год выпуска: 1961
Страна: СССР
Жанр: Комедия, короткометражка
Продолжительность: 00:18:59
Перевод: Не требуется
Режиссер: Леонид Гайдай
В ролях: Евгений Моргунов, Георгий Вицин, Юрий Никулин, Владимир Пицек
Описание: Трус, Балбес и Бывалый решают поставить на широкую ногу изготовление самогона — и снова фиаско…
Качество: BDRip-AVC 60FPS
Формат: MKV
Видео кодек: H.264
Аудио кодек: AC3
Видео: MPEG4 Video (H264) 768x560 59.94fps (1.371) 3500 kb/s
Аудио: Dolby AC3 48000Hz 6ch 640kbps

MediaInfo

Код:
General
Unique ID : 189679237163839592463431678609795422035 (0x8EB2E46BB0EFD88A883A57ACC0D99753)
Complete name : E:\Фильмы , Мультфильмы\Советские фильмы\60 FPS\Самогонщики BDRip-AVC 60FPS.mkv
Format : Matroska
Format version : Version 4 / Version 2
File size : 563 MiB
Duration : 18 min 58 s
Overall bit rate : 4 151 kb/s
Movie name : Tiberiumsun69
Encoded date : UTC 2015-12-31 06:50:35
Writing application : mkvmerge v8.3.0 ('Over the Horizon') 64bit
Writing library : libebml v1.3.1 + libmatroska v1.4.2
Cover : Yes
Attachments : Cover.png
Video
ID : 1
Format : AVC
Format/Info : Advanced Video Codec
Format profile : High@L4.1
Format settings, CABAC : Yes
Format settings, RefFrames : 4 frames
Codec ID : V_MPEG4/ISO/AVC
Duration : 18 min 58 s
Bit rate : 3 500 kb/s
Width : 768 pixels
Height : 560 pixels
Display aspect ratio : 1.371
Frame rate mode : Constant
Frame rate : 59.940 (59940/1000) FPS
Color space : YUV
Chroma subsampling : 4:2:0
Bit depth : 8 bits
Scan type : Progressive
Bits/(Pixel*Frame) : 0.136
Stream size : 465 MiB (83%)
Title : Tiberiumsun69
Writing library : x264 core 146 r2538 121396c
Encoding settings : cabac=1 / ref=3 / deblock=1:0:0 / analyse=0x3:0x113 / me=umh / subme=9 / psy=1 / psy_rd=1.00:0.10 / mixed_ref=1 / me_range=32 / chroma_me=1 / trellis=2 / 8x8dct=1 / cqm=0 / deadzone=21,11 / fast_pskip=0 / chroma_qp_offset=-3 / threads=12 / lookahead_threads=3 / sliced_threads=0 / nr=0 / decimate=1 / interlaced=0 / bluray_compat=0 / constrained_intra=0 / bframes=16 / b_pyramid=2 / b_adapt=2 / b_bias=0 / direct=3 / weightb=1 / open_gop=0 / weightp=2 / keyint=250 / keyint_min=25 / scenecut=40 / intra_refresh=0 / rc_lookahead=40 / rc=2pass / mbtree=0 / bitrate=3500 / ratetol=1.0 / qcomp=0.60 / qpmin=0 / qpmax=69 / qpstep=4 / cplxblur=20.0 / qblur=0.5 / vbv_maxrate=14000 / vbv_bufsize=14000 / nal_hrd=none / filler=0 / ip_ratio=1.40 / pb_ratio=1.30 / aq=1:1.00
Language : English
Default : Yes
Forced : No
Audio
ID : 2
Format : AC-3
Format/Info : Audio Coding 3
Format settings, Endianness : Big
Codec ID : A_AC3
Duration : 18 min 58 s
Bit rate mode : Constant
Bit rate : 640 kb/s
Channel(s) : 6 channels
Channel positions : Front: L C R, Side: L R, LFE
Sampling rate : 48.0 kHz
Frame rate : 31.250 FPS (1536 SPF)
Bit depth : 16 bits
Compression mode : Lossy
Stream size : 86.9 MiB (15%)
Title : Оригинал
Language : Russian
Service kind : Complete Main
Default : Yes
Forced : No

Скриншоты

-746

Создавать темы 21-Май-2020 23:57 (спустя 8 месяцев 10 дней)

Топик был перенесен из форума Для пробных раздач в форум Российские кинофильмы


Admin
Показать сообщения:    

Текущее время: 01-Дек 19:12

Часовой пояс: UTC - 5



Вы не можете начинать темы
Вы не можете отвечать на сообщения
Вы не можете редактировать свои сообщения
Вы не можете удалять свои сообщения
Вы не можете голосовать в опросах
Вы не можете прикреплять файлы к сообщениям
Вы не можете скачивать файлы