O'rgimchak Odam: Uydan Olisda / Человек-паук: Вдали от дома / Spider-Man: Far from Home (Jon Uotts / Джон Уоттс / Jon Watts) [2019, Fantastika, Jangari, Sarguzasht, BDRip 1080p HEVC] O'zbek Tilida.

Статистика раздачи

Скачал: [ 1 ]
 
     
 
 
Автор Сообщение

N.U.R.I.K.B.E.K ®

Не в сети

5417

Пол: Мужской

Стаж: 11 месяцев

Сообщений: 20

Откуда: Jizzax.Paxtakor

Карма: 110

[+]

Провайдер: UzOnline UzOnline

Наличие запрета:



Награды: Нет

[Профиль] ЛС

Создавать темы 19-Сен-2019 04:43

Цитировать

- --O'rgimchak Odam: Uydan Olisda
Человек-паук: Вдали от дома
Spider-Man: Far From Home
--Chiqqan Yili: 2019
Davlat: AQSH
Janr: Fantastika, Jangari, Sarguzasht.
Davomoyligi: 02:09:21
Tarjima: Professional (Ko'p Ovozli) [MY5]--Rejissyor: Jon Uotts / Джон Уоттс / Jon Watts--Rollarda: Tom Holland (II), Zandaya Koleman, Engary Reys, Jon Favro, Jeyk Jillenhol, Samvel L. Jekson, Kobi Smolders, Merisa Tomey, Martin Starr, Noman Adjar, Jeykob Batalon, Toni Revolori--Tavsif: Piter Parker va uning do'stlari yozgi ta'tilda Yevropaga ketishmoqda. Biroq, do'stlar dam olishlari dargumon - Butrus Nik Furyga qit'ada tabiiy ofatlar va vayronagarchiliklarni keltirib chiqaradigan mavjudotlarning sirini ochishga yordam berishga rozi bo'ladi.-- --Sifat: BDRip 1080p HEVC
Format: MKV-Video: HEVC, 1920 x 800, 23.976 fps 2 100 kb/s
Audio: MP3 48000Hz stereo 128kbps O'zbek Tili--

MediaInfo

General
Format : Matroska
Format version : Version 4 / Version 2
File size : 2.01 GiB
Duration : 2 h 8 min
Overall bit rate : 2 230 kb/s
Encoded date : UTC 2019-09-19 03:14:57
Writing application : mkvmerge v15.0.0 ('Duel with the Devil') 64-bit
Writing library : libebml v1.3.5 + libmatroska v1.4.5
Video
ID : 1
Format : AVC
Format/Info : Advanced Video Codec
Format profile : High@L4.1
Format settings, CABAC : Yes
Format settings, RefFrames : 4 frames
Codec ID : V_MPEG4/ISO/AVC
Duration : 2 h 8 min
Bit rate : 2 100 kb/s
Width : 1 920 pixels
Height : 800 pixels
Display aspect ratio : 2.40:1
Frame rate mode : Constant
Frame rate : 30.000 FPS
Color space : YUV
Chroma subsampling : 4:2:0
Bit depth : 8 bits
Scan type : Progressive
Bits/(Pixel*Frame) : 0.046
Stream size : 1.89 GiB (94%)
Writing library : x264 core 152
Default : Yes
Forced : No
Audio
ID : 2
Format : MPEG Audio
Format version : Version 1
Format profile : Layer 3
Mode : Joint stereo
Codec ID : A_MPEG/L3
Codec ID/Hint : MP3
Duration : 2 h 8 min
Bit rate mode : Constant
Bit rate : 128 kb/s
Channel(s) : 2 channels
Sampling rate : 48.0 kHz
Frame rate : 41.667 FPS (1152 SPF)
Compression mode : Lossy
Stream size : 118 MiB (6%)
Title : O'zbek Tili
Writing library : LAME3.99.5
Language : Uzbek
Default : Yes
Forced : No
Показать сообщения:    

Текущее время: 05-Июн 23:50

Часовой пояс: UTC - 5



Вы не можете начинать темы
Вы не можете отвечать на сообщения
Вы не можете редактировать свои сообщения
Вы не можете удалять свои сообщения
Вы не можете голосовать в опросах
Вы не можете прикреплять файлы к сообщениям
Вы не можете скачивать файлы