Регистрация ·
Имя: Пароль:  
· Забыли пароль? · Вопросы от гостей
Охотник на монстров
HDRezka Studio
BDRip 720p
Охотник на монстров
HDRezka Studio
BDRip 1080p
Чудо-женщина: 1984
Мосфильм-Мастер
WEB-DL 720p
Чудо-женщина: 1984
Мосфильм-Мастер
WEB-DL 1080p
Чудо-женщина: 1984
Мосфильм-Мастер
WEB-DL 2160p
Kliplar To'plami
O'zbek Tilida
Rizanova
12 Round
O'zbek Tilida
BluRay 1080p
Qo'riqchi ayol
O'zbek Tilida
BluRay 1080p
SHAFT
O'zbek Tilida
BDRip
SHAFT
O'zbek Tilida
WEBRip 1080p
Javohir politsiyachi
O'zbek Tilida
BDRip-AVC
So'nggi Ritsarlar
O'zbek Tilida
BluRay 1080p
Агент Ева
O'zbek Tilida
WEB-Rip
Анна
iTunes
BDRip 1080p
Анна
iTunes
BDRip-AVC
Анна
iTunes
BDRip
Mulan
O'zbek Tilida
WEBRip 1080p HEVC x265
Мулан
IdeaFilm
WEB-DL 720p
Мулан
IdeaFilm
WEB-DL 1080p
Мулан
IdeaFilm
WEB-DL 2160p
Temir Odam Uchligi
O'zbek Tilida
BluRay, 1080p, HEVC, x265, 10bit
Kliplar To'plami
O'zbek Tilida
Rizanova
Singularity
Repack
Mechanics
Tom Raider
Repack
Xatab
Far Cry New Dawn
Repack
Xatab
Far Cry 3
Repack
Xatab
Фитнес
Россия
WEB-DL 720p
Resident Evil
Гексалогия
Repack
Godzilla 2; Mahluqlar Qiroli
O'zbek Tilida
WEBRip HEVC 720p
Olimpning Qulashi
O'zbek Tilida
BDRip
X-Odamlar Qora Qaqnus
O'zbek Tilida
BDRip 1080p
Sevishganlar
O'zbek Tilida
HDRip
Maymunlar Sayyorasi Uchlik
O'zbek Tilida
BDRip
Koko Siri
O'zbek Tilida
BDRip-AVC
Спартак
РенТВ
BDRip 720p
Shelbilar oilasi
O'zbek Tilida
x265 1080p WEBRip 10bit
Однажды на востоке
Лицензия
BDRip 1080p
Yason va Argonaftlar
O'zbek Tilida
DVDRip x264
Shelbilar oilasi
O'zbek Tilida
BluRay 1080p x264
Qotillik Uchun Uch Kun
O'zbek Tilida
BluRay 1080p x264
Ko'd 211
O'zbek + Rus + Ing
BluRay 1080p
Интрижка
iTunes
WEB-DLRip
WarFace
Лицензия
Русский
Уважаемые гости сайта! Добро Пожаловать на наш торрент трекер,где Вы можете бесплатно скачать любой Софт,Фильмы,Музыку и многое другое! А так же постоянно ведется набор модераторов и релизеров. Зарегистрируйтесь сейчас, чтобы получить доступ ко всем функциям. После регистрации или входа на сайт вы сможете создавать темы, отвечать на сообщения и скачивать файлы.

Uzunquloq Piter (Will Gluck) [2018, Oilaviy, Komediya, Multfilm, BDRip 1080p HEVC 10 Bit] O'zbek tilida

Статистика раздачи
Качаю: [ 2 ]
Скачал: [ 2 ]
 
     
 
 
Автор Сообщение

UmarShoh ®

Не в сети

5439

Пол: Мужской

Стаж: 1 год 6 месяцев

Сообщений: 37

Карма: 100

[+]

Провайдер: UzOnline UzOnline

Наличие запрета:



Награды: Нет

[Профиль] ЛС

Создавать темы 13-Окт-2019 20:01

Цитировать

-Uzunquloq Piter- -Chiqqan yili: 2018
Davlat: AQSH
Janr: Oilaviy, Komediya, Multfilm
Davomiyligi: 01:34:41
Tarjima: Professional (dublyaj qilingan)
Tarjima 2: Professional (dublyaj qilingan)
-Rejissyor: Will Gluck-Rollarda: Djеyms Kordеn, Faysal Bazzi, Donal Glison, Sia, Kolin Mudi, Sem Nill, Margo Robbi, Elizabеt Dеbiki, Deyzi Ridli, Rouz Birn
-Tavsif: Film, qo'shni fermerning bog'iga kirib, mazza qilib meva hamda sabzavot yeyishni istayotgan, kichkina va sho'x Piter ismli quyoncha haqida...-Videoning sifati: BDRip 1080p HEVC 10 Bit
Video format: MKV
Video: HEVC, 1920x804, 4995kbps, 23.976fps
Audio : Dolby AC3 48000Hz 6ch 384 kb/s | iTunes | Ruscha
Audio 2 : AAC 48000Hz 6ch 468 kb/s | Inglizcha
Audio 3 : MP3, 44100Hz, 128 Kbps, 2ch |O'zbekcha (Sevimli_Tv)
Subtitrlar: Yo'q.

Media Info


General
Unique ID : 127695738606104350912597200797072259342 (0x60114DFF31E0B38AC2AAE299C412790E)
Complete name : D:\Media\Kinolar\011) Peter Rabbit [ 2018 1080p HEVC 10bit ] O'zbek tilida.mkv
Format : Matroska
Format version : Version 4 / Version 2
File size : 3.95 GiB
Duration : 1 h 34 min
Overall bit rate : 5 979 kb/s
Movie name : Peter Rabbit
Encoded date : UTC 2018-05-12 19:05:38
Writing application : mkvmerge v22.0.0 ('At The End Of The World') 64-bit
Writing library : libebml v1.3.5 + libmatroska v1.4.8 / Lavf57.41.100
Cover : Yes
Attachments : Cover.jpg
Video
ID : 1
Format : HEVC
Format/Info : High Efficiency Video Coding
Format profile : Main 10@L4@Main
Codec ID : V_MPEGH/ISO/HEVC
Duration : 1 h 34 min
Bit rate : 4 995 kb/s
Width : 1 920 pixels
Height : 804 pixels
Display aspect ratio : 2.40:1
Frame rate mode : Constant
Frame rate : 23.976 (24000/1001) FPS
Color space : YUV
Chroma subsampling : 4:2:0
Bit depth : 10 bits
Bits/(Pixel*Frame) : 0.135
Stream size : 3.30 GiB (84%)
Title : Orginal
Writing library : x265 2.7+337-54ff74d2b635:[Windows][GCC 7.3.0][64 bit] 10bit
Encoding settings : cpuid=1111039 / frame-threads=3 / numa-pools=8 / wpp / no-pmode / no-pme / no-psnr / no-ssim / log-level=2 / input-csp=1 / input-res=1920x804 / interlace=0 / total-frames=136248 / level-idc=0 / high-tier=1 / uhd-bd=0 / ref=4 / no-allow-non-conformance / no-repeat-headers / annexb / no-aud / no-hrd / info / hash=0 / no-temporal-layers / open-gop / min-keyint=23 / keyint=250 / gop-lookahead=0 / bframes=4 / b-adapt=2 / b-pyramid / bframe-bias=0 / rc-lookahead=25 / lookahead-slices=4 / scenecut=40 / radl=0 / no-intra-refresh / ctu=64 / min-cu-size=8 / rect / no-amp / max-tu-size=32 / tu-inter-depth=1 / tu-intra-depth=1 / limit-tu=0 / rdoq-level=2 / dynamic-rd=0.00 / no-ssim-rd / signhide / no-tskip / nr-intra=0 / nr-inter=0 / no-constrained-intra / strong-intra-smoothing / max-merge=3 / limit-refs=3 / limit-modes / me=3 / subme=3 / merange=57 / temporal-mvp / weightp / no-weightb / no-analyze-src-pics / deblock=0:0 / sao / no-sao-non-deblock / rd=4 / no-early-skip / rskip / no-fast-intra / no-tskip-fast / no-cu-lossless / no-b-intra / no-splitrd-skip / rdpenalty=0 / psy-rd=2.00 / psy-rdoq=1.00 / no-rd-refine / no-lossless / cbqpoffs=0 / crqpoffs=0 / rc=abr / bitrate=5000 / qcomp=0.60 / qpstep=4 / stats-write=0 / stats-read=2 / cplxblur=20.0 / qblur=0.5 / ipratio=1.40 / pbratio=1.30 / aq-mode=3 / aq-strength=1.00 / cutree / zone-count=0 / no-strict-cbr / qg-size=32 / no-rc-grain / qpmax=69 / qpmin=0 / no-const-vbv / sar=0 / overscan=0 / videoformat=5 / range=0 / colorprim=2 / transfer=2 / colormatrix=2 / chromaloc=0 / display-window=0 / max-cll=0,0 / min-luma=0 / max-luma=1023 / log2-max-poc-lsb=8 / vui-timing-info / vui-hrd-info / slices=1 / no-opt-qp-pps / no-opt-ref-list-length-pps / multi-pass-opt-rps / scenecut-bias=0.05 / no-opt-cu-delta-qp / aq-motion / no-hdr / no-hdr-opt / no-dhdr10-opt / no-idr-recovery-sei / analysis-reuse-level=5 / scale-factor=0 / refine-intra=0 / refine-inter=0 / refine-mv=0 / no-limit-sao / ctu-info=0 / no-lowpass-dct / refine-mv-type=0 / copy-pic=1 / max-ausize-factor=1.0 / no-dynamic-refine / no-single-sei
Language : English
Default : Yes
Forced : No
Audio #1
ID : 2
Format : AC-3
Format/Info : Audio Coding 3
Codec ID : A_AC3
Duration : 1 h 34 min
Bit rate mode : Constant
Bit rate : 384 kb/s
Channel(s) : 6 channels
Channel positions : Front: L C R, Side: L R, LFE
Sampling rate : 48.0 kHz
Frame rate : 31.250 FPS (1536 SPF)
Bit depth : 16 bits
Compression mode : Lossy
Stream size : 260 MiB (6%)
Title : Дублированный
Language : Russian
Service kind : Complete Main
Default : No
Forced : No
Audio #2
ID : 3
Format : AAC
Format/Info : Advanced Audio Codec
Format profile : LC
Codec ID : A_AAC-2
Duration : 1 h 34 min
Bit rate : 468 kb/s
Channel(s) : 6 channels
Channel positions : Front: L C R, Side: L R, LFE
Sampling rate : 48.0 kHz
Frame rate : 46.875 FPS (1024 SPF)
Compression mode : Lossy
Delay relative to video : 20 ms
Stream size : 317 MiB (8%)
Title : Orginal
Language : English
Default : No
Forced : No
Audio #3
ID : 4
Format : MPEG Audio
Format version : Version 1
Format profile : Layer 3
Format settings : Joint stereo
Codec ID : A_MPEG/L3
Codec ID/Hint : MP3
Duration : 1 h 34 min
Bit rate mode : Constant
Bit rate : 128 kb/s
Channel(s) : 2 channels
Sampling rate : 44.1 kHz
Frame rate : 38.281 FPS (1152 SPF)
Compression mode : Lossy
Stream size : 86.7 MiB (2%)
Title : Sevimli_Tv (UmarShoh_FL)
Writing library : LAME3.99.5
Language : Uzbek
Default : Yes
Forced : No
Menu #1
00:00:00.000 : :Chapter 01
00:04:04.619 : :Chapter 02
00:08:26.297 : :Chapter 03
00:15:11.493 : :Chapter 04
00:21:00.634 : :Chapter 05
00:25:43.500 : :Chapter 06
00:30:50.265 : :Chapter 07
00:38:00.861 : :Chapter 08
00:44:36.965 : :Chapter 09
00:50:07.504 : :Chapter 10
00:56:21.044 : :Chapter 11
00:58:40.183 : :Chapter 11
01:01:05.430 : :Chapter 12
01:07:00.743 : :Chapter 13
01:10:28.785 : :Chapter 14
01:14:33.321 : :Chapter 15
01:21:49.798 : :Chapter 16
Menu #2
00:00:00.000 : :Chapter 01
00:04:04.619 : :Chapter 02
00:08:26.297 : :Chapter 03
00:15:11.493 : :Chapter 04
00:21:00.634 : :Chapter 05
00:25:43.500 : :Chapter 06
00:30:50.265 : :Chapter 07
00:38:00.861 : :Chapter 08
00:44:36.965 : :Chapter 09
00:50:07.504 : :Chapter 10
00:56:21.044 : :Chapter 11
00:58:40.183 : :Chapter 11
01:01:05.430 : :Chapter 12
01:07:00.743 : :Chapter 13
01:10:28.785 : :Chapter 14
01:14:33.321 : :Chapter 15
01:21:49.798 : :Chapter 16

-746

Создавать темы 14-Окт-2019 08:19 (спустя 12 часов)

Топик был перенесен из форума Для пробных раздач в форум Ўзбек мультфильмлар учун
NuRKHoNoFF
Показать сообщения:    

Текущее время: 04-Мар 04:53

Часовой пояс: UTC - 5



Вы не можете начинать темы
Вы не можете отвечать на сообщения
Вы не можете редактировать свои сообщения
Вы не можете удалять свои сообщения
Вы не можете голосовать в опросах
Вы не можете прикреплять файлы к сообщениям
Вы не можете скачивать файлы