Регистрация ·
Имя: Пароль:  
· Забыли пароль? · Вопросы от гостей
Kliplar To'plami
O'zbek Tilida
Rizanova
Qo'riqchi ayol
O'zbek Tilida
BluRay 1080p
SHAFT
O'zbek Tilida
BDRip
SHAFT
O'zbek Tilida
WEBRip 1080p
Javohir politsiyachi
O'zbek Tilida
BDRip-AVC
So'nggi Ritsarlar
O'zbek Tilida
BluRay 1080p
Агент Ева
O'zbek Tilida
WEB-Rip
Анна
iTunes
BDRip 1080p
Анна
iTunes
BDRip-AVC
Анна
iTunes
BDRip
Mulan
O'zbek Tilida
WEBRip 1080p HEVC x265
Мулан
IdeaFilm
WEB-DL 720p
Мулан
IdeaFilm
WEB-DL 1080p
Мулан
IdeaFilm
WEB-DL 2160p
Temir Odam Uchligi
O'zbek Tilida
BluRay, 1080p, HEVC, x265, 10bit
Kliplar To'plami
O'zbek Tilida
Rizanova
Singularity
Repack
Mechanics
Tom Raider
Repack
Xatab
Far Cry New Dawn
Repack
Xatab
Far Cry 3
Repack
Xatab
Фитнес
Россия
WEB-DL 720p
Resident Evil
Гексалогия
Repack
Godzilla 2; Mahluqlar Qiroli
O'zbek Tilida
WEBRip HEVC 720p
Olimpning Qulashi
O'zbek Tilida
BDRip
X-Odamlar Qora Qaqnus
O'zbek Tilida
BDRip 1080p
Sevishganlar
O'zbek Tilida
HDRip
Maymunlar Sayyorasi Uchlik
O'zbek Tilida
BDRip
Koko Siri
O'zbek Tilida
BDRip-AVC
Спартак
РенТВ
BDRip 720p
Shelbilar oilasi
O'zbek Tilida
x265 1080p WEBRip 10bit
Однажды на востоке
Лицензия
BDRip 1080p
Yason va Argonaftlar
O'zbek Tilida
DVDRip x264
Shelbilar oilasi
O'zbek Tilida
BluRay 1080p x264
Qotillik Uchun Uch Kun
O'zbek Tilida
BluRay 1080p x264
Ko'd 211
O'zbek + Rus + Ing
BluRay 1080p
Интрижка
iTunes
WEB-DLRip
WarFace
Лицензия
Русский
Хоббит / Властелин колец
Коллекция
BDRip 1080p H264
SamDrivers
x32/x64
Repack
Чудесный доктор
WEB-DL 1080p
Турция
Острые козырьки
H265 1080p BluRay
Uzb+Ing
S.T.A.L.K.E.R
Анталогия
Repack
Зов джунглей
Рус
WEB-DL 1080p
Ajal Poygasi
Uzb Rus Ing
BrRip 1080p H264
Yengilmas Gvardiya
O'zbek Tilida
WEB-DL 1080p H264
Suv va Olov
O'zbek Tilida
BDRip H264
S.T.A.L.K.E.R.
Анталогия Модов
GSC Game World
GTA 5
RePack
Лицензия
Tunnel: Hayot uchun xavfli
Uzb Tilida
WEB-DL 1080p
Уважаемые гости сайта! Добро Пожаловать на наш торрент трекер,где Вы можете бесплатно скачать любой Софт,Фильмы,Музыку и многое другое! А так же постоянно ведется набор модераторов и релизеров. Зарегистрируйтесь сейчас, чтобы получить доступ ко всем функциям. После регистрации или входа на сайт вы сможете создавать темы, отвечать на сообщения и скачивать файлы.

TARONA TAQDIMOTI COLLECTION 2000 yildan 2006 yilgacha [Konsert, WEBRip 720p,]

Статистика раздачи
Качаю: [ 1 ]
Скачал: [ 2 ]
 
     
 
 
Автор Сообщение

JAMSHIDDIN85 ®

Не в сети

5410

Пол: Мужской

Стаж: 1 год 3 месяца

Сообщений: 373

Карма: 20

[+]

Провайдер: TPS TPS

Тарифный план: 1.5 Mbit / 5 Mbit sek (круглосуточно)

Наличие запрета:



Награды: Нет

[Профиль] ЛС

Создавать темы 21-Ноя-2019 06:25

Цитировать

TARONA TAQDIMOTI COLLECTION Chiqqan Yili: 2000, 2001, 2002, 2003, 2004, 2005, 2006
Davlat: Uzbekistan
Janr: Konsert
Davomiyligi: 6 ~ 01:20:24, 01:14:49, 01:53:39+00:58:32, 01:35:41+01:29:17, 01:46:13+01:20:37, 01:29:13+01:28:46, 02:00:42.
Tarjima: O'zbek Tilida
Sifat: WEBRip 720p.
Format: MP4
Video: MPEG4 Video (H264) 1280x720 25fps 986kbps [V: h264 main L3.1, yuv420p, 1280x720, 986 kb/s]
Audio: AAC 44100Hz stereo 125kbps [A: SoundHandler (aac lc, 44100 Hz, stereo, 125 kb/s)]

TARONA TAQDIMOTI COLLECTION 2000 yil

Video: MPEG4 Video (H264) 1280x720 25fps 986kbps [V: h264 main L3.1, yuv420p, 1280x720, 986 kb/s]
Audio: AAC 44100Hz stereo 125kbps [A: SoundHandler (aac lc, 44100 Hz, stereo, 125 kb/s)]

Информация по видеофайлу

General
Complete name : D:\KONSERTLAR\TARONA TAQDIMOTI COLLECTION 2000 tildan 2006 yilgacha\Tarona taqdimoti 2000-yil - Тарона такдимоти 2000-йил - YouTube.mp4
Format : MPEG-4
Format profile : Base Media
Codec ID : isom (isom/iso2/avc1/mp41)
File size : 642 MiB
Duration : 1 h 20 min
Overall bit rate mode : Variable
Overall bit rate : 1 116 kb/s
Encoded date : UTC 2018-10-31 21:43:35
Tagged date : UTC 2018-10-31 21:43:35
Video
ID : 1
Format : AVC
Format/Info : Advanced Video Codec
Format profile : Main@L3.1
Format settings : CABAC / 3 Ref Frames
Format settings, CABAC : Yes
Format settings, Reference fra : 3 frames
Codec ID : avc1
Codec ID/Info : Advanced Video Coding
Duration : 1 h 20 min
Bit rate : 987 kb/s
Width : 1 280 pixels
Height : 720 pixels
Display aspect ratio : 16:9
Frame rate mode : Constant
Frame rate : 25.000 FPS
Color space : YUV
Chroma subsampling : 4:2:0
Bit depth : 8 bits
Scan type : Progressive
Bits/(Pixel*Frame) : 0.043
Stream size : 567 MiB (88%)
Encoded date : UTC 2018-10-31 21:43:35
Tagged date : UTC 2018-10-31 21:43:35
Color range : Limited
Color primaries : BT.709
Transfer characteristics : BT.709
Matrix coefficients : BT.709
Codec configuration box : avcC
Audio
ID : 2
Format : AAC LC
Format/Info : Advanced Audio Codec Low Complexity
Codec ID : mp4a-40-2
Duration : 1 h 20 min
Bit rate mode : Variable
Bit rate : 126 kb/s
Channel(s) : 2 channels
Channel layout : L R
Sampling rate : 44.1 kHz
Frame rate : 43.066 FPS (1024 SPF)
Compression mode : Lossy
Stream size : 72.2 MiB (11%)
Default : Yes
Alternate group : 1
Encoded date : UTC 2018-10-31 17:05:08
Tagged date : UTC 2018-10-31 17:05:08

Скриншоты

TARONA TAQDIMOTI COLLECTION 2001 yil

Video: MPEG4 Video (H264) 1280x720 25fps 1236kbps [V: ISO Media file produced by Google Inc. Created on: 05/23/2019. (h264 main L3.1, yuv420p, 1280x720, 1236 kb/s)]
Audio: AAC 44100Hz stereo 127kbps [A: ISO Media file produced by Google Inc. Created on: 05/23/2019. (aac lc, 44100 Hz, stereo, 127 kb/s)]

Информация по видеофайлу

General
Complete name : D:\KONSERTLAR\TARONA TAQDIMOTI COLLECTION 2000 tildan 2006 yilgacha\Tarona taqdimoti 2001-yil - Тарона такдимоти 2001-йил - YouTube.mp4
Format : MPEG-4
Format profile : Base Media
Codec ID : isom (isom/iso2/avc1/mp41)
File size : 732 MiB
Duration : 1 h 14 min
Overall bit rate mode : Variable
Overall bit rate : 1 368 kb/s
Encoded date : UTC 2019-05-24 05:45:08
Tagged date : UTC 2019-05-24 05:45:08
Video
ID : 1
Format : AVC
Format/Info : Advanced Video Codec
Format profile : Main@L3.1
Format settings : CABAC / 3 Ref Frames
Format settings, CABAC : Yes
Format settings, Reference fra : 3 frames
Codec ID : avc1
Codec ID/Info : Advanced Video Coding
Duration : 1 h 14 min
Bit rate : 1 236 kb/s
Width : 1 280 pixels
Height : 720 pixels
Display aspect ratio : 16:9
Frame rate mode : Constant
Frame rate : 25.000 FPS
Color space : YUV
Chroma subsampling : 4:2:0
Bit depth : 8 bits
Scan type : Progressive
Bits/(Pixel*Frame) : 0.054
Stream size : 662 MiB (90%)
Title : ISO Media file produced by Google Inc. Created on: 05/23/2019.
Writing library : x264 core 155 r2901 7d0ff22
Encoded date : UTC 2019-05-24 05:45:08
Tagged date : UTC 2019-05-24 05:45:08
Color range : Limited
Color primaries : BT.709
Transfer characteristics : BT.709
Matrix coefficients : BT.709
Codec configuration box : avcC
Audio
ID : 2
Format : AAC LC
Format/Info : Advanced Audio Codec Low Complexity
Codec ID : mp4a-40-2
Duration : 1 h 14 min
Bit rate mode : Variable
Bit rate : 128 kb/s
Channel(s) : 2 channels
Channel layout : L R
Sampling rate : 44.1 kHz
Frame rate : 43.066 FPS (1024 SPF)
Compression mode : Lossy
Stream size : 68.5 MiB (9%)
Title : ISO Media file produced by Google Inc. Created on: 05/23/2019.
Default : Yes
Alternate group : 1
Encoded date : UTC 2019-05-24 05:44:59
Tagged date : UTC 2019-05-24 05:44:59

TARONA TAQDIMOTI COLLECTION 2002 yil

TARONA TAQDIMOTI COLLECTION 2002 yil 1-qism

Video: MPEG4 Video (H264) 1280x720 25fps 1154kbps [V: h264 main L3.1, yuv420p, 1280x720, 1154 kb/s]
Audio: AAC 44100Hz stereo 125kbps [A: SoundHandler (aac lc, 44100 Hz, stereo, 125 kb/s)]

Информация по видеофайлу

General
Complete name : D:\KONSERTLAR\TARONA TAQDIMOTI COLLECTION 2000 tildan 2006 yilgacha\Tarona taqdimoti 2002 yil - Тарона такдимоти 2002 йил 1-qism 720p.mp4
Format : MPEG-4
Format profile : Base Media
Codec ID : isom (isom/iso2/avc1/mp41)
File size : 1.02 GiB
Duration : 1 h 53 min
Overall bit rate mode : Variable
Overall bit rate : 1 284 kb/s
Encoded date : UTC 2018-09-27 05:32:28
Tagged date : UTC 2018-09-27 05:32:28
Video
ID : 1
Format : AVC
Format/Info : Advanced Video Codec
Format profile : Main@L3.1
Format settings : CABAC / 3 Ref Frames
Format settings, CABAC : Yes
Format settings, Reference fra : 3 frames
Codec ID : avc1
Codec ID/Info : Advanced Video Coding
Duration : 1 h 53 min
Bit rate : 1 155 kb/s
Width : 1 280 pixels
Height : 720 pixels
Display aspect ratio : 16:9
Frame rate mode : Constant
Frame rate : 25.000 FPS
Color space : YUV
Chroma subsampling : 4:2:0
Bit depth : 8 bits
Scan type : Progressive
Bits/(Pixel*Frame) : 0.050
Stream size : 939 MiB (90%)
Encoded date : UTC 2018-09-27 05:32:28
Tagged date : UTC 2018-09-27 05:32:28
Color range : Limited
Color primaries : BT.709
Transfer characteristics : BT.709
Matrix coefficients : BT.709
Codec configuration box : avcC
Audio
ID : 2
Format : AAC LC
Format/Info : Advanced Audio Codec Low Complexity
Codec ID : mp4a-40-2
Duration : 1 h 53 min
Bit rate mode : Variable
Bit rate : 126 kb/s
Channel(s) : 2 channels
Channel layout : L R
Sampling rate : 44.1 kHz
Frame rate : 43.066 FPS (1024 SPF)
Compression mode : Lossy
Stream size : 102 MiB (10%)
Default : Yes
Alternate group : 1
Encoded date : UTC 2018-09-27 05:44:27
Tagged date : UTC 2018-09-27 05:44:27

Скриншоты

TARONA TAQDIMOTI COLLECTION 2002 yil 2-qism

Video: MPEG4 Video (H264) 1280x720 25fps 1476kbps [V: h264 main L3.1, yuv420p, 1280x720, 1476 kb/s]
Audio: AAC 44100Hz stereo 125kbps [A: SoundHandler (aac lc, 44100 Hz, stereo, 125 kb/s)]

Информация по видеофайлу

General
Complete name : D:\KONSERTLAR\TARONA TAQDIMOTI COLLECTION 2000 tildan 2006 yilgacha\Tarona taqdimoti 2002 yil - Тарона такдимоти 2002 йил 2-qism 720p.mp4
Format : MPEG-4
Format profile : Base Media
Codec ID : isom (isom/iso2/avc1/mp41)
File size : 672 MiB
Duration : 58 min 32 s
Overall bit rate mode : Variable
Overall bit rate : 1 605 kb/s
Encoded date : UTC 2014-07-17 03:20:48
Tagged date : UTC 2014-07-17 03:20:48
Video
ID : 1
Format : AVC
Format/Info : Advanced Video Codec
Format profile : Main@L3.1
Format settings : CABAC / 3 Ref Frames
Format settings, CABAC : Yes
Format settings, Reference fra : 3 frames
Codec ID : avc1
Codec ID/Info : Advanced Video Coding
Duration : 58 min 32 s
Source duration : 58 min 32 s
Source_Duration_LastFrame : -39 ms
Bit rate : 1 476 kb/s
Width : 1 280 pixels
Height : 720 pixels
Display aspect ratio : 16:9
Frame rate mode : Constant
Frame rate : 25.000 FPS
Color space : YUV
Chroma subsampling : 4:2:0
Bit depth : 8 bits
Scan type : Progressive
Bits/(Pixel*Frame) : 0.064
Stream size : 618 MiB (92%)
Source stream size : 618 MiB (92%)
Encoded date : UTC 2014-07-17 03:20:48
Tagged date : UTC 2014-07-17 03:20:48
Codec configuration box : avcC
Audio
ID : 2
Format : AAC LC
Format/Info : Advanced Audio Codec Low Complexity
Codec ID : mp4a-40-2
Duration : 58 min 31 s
Bit rate mode : Variable
Bit rate : 126 kb/s
Channel(s) : 2 channels
Channel layout : L R
Sampling rate : 44.1 kHz
Frame rate : 43.066 FPS (1024 SPF)
Compression mode : Lossy
Stream size : 52.6 MiB (8%)
Default : Yes
Alternate group : 1
Encoded date : UTC 2014-07-17 03:19:41
Tagged date : UTC 2014-07-17 03:19:41

Скриншоты

TARONA TAQDIMOTI COLLECTION 2003 yil

TARONA TAQDIMOTI COLLECTION 2003 yil 1-qism

1:35:41
Video: MPEG4 Video (H264) 1280x720 25fps 1606kbps [V: h264 main L3.1, yuv420p, 1280x720, 1606 kb/s]
Audio: AAC 44100Hz stereo 125kbps [A: SoundHandler (aac lc, 44100 Hz, stereo, 125 kb/s)]

Информация по видеофайлу

General
Complete name : D:\KONSERTLAR\TARONA TAQDIMOTI COLLECTION 2000 tildan 2006 yilgacha\Tarona taqdimoti 2003 yil - Тарона такдимоти 2003 йил 1-qism 720p.mp4
Format : MPEG-4
Format profile : Base Media
Codec ID : isom (isom/iso2/avc1/mp41)
File size : 1.16 GiB
Duration : 1 h 35 min
Overall bit rate mode : Variable
Overall bit rate : 1 736 kb/s
Encoded date : UTC 2014-08-21 05:12:18
Tagged date : UTC 2014-08-21 05:12:18
Video
ID : 1
Format : AVC
Format/Info : Advanced Video Codec
Format profile : Main@L3.1
Format settings : CABAC / 3 Ref Frames
Format settings, CABAC : Yes
Format settings, Reference fra : 3 frames
Codec ID : avc1
Codec ID/Info : Advanced Video Coding
Duration : 1 h 35 min
Duration_LastFrame : -39 ms
Bit rate : 1 607 kb/s
Width : 1 280 pixels
Height : 720 pixels
Display aspect ratio : 16:9
Frame rate mode : Constant
Frame rate : 25.000 FPS
Color space : YUV
Chroma subsampling : 4:2:0
Bit depth : 8 bits
Scan type : Progressive
Bits/(Pixel*Frame) : 0.070
Stream size : 1.07 GiB (93%)
Encoded date : UTC 2014-08-21 05:12:18
Tagged date : UTC 2014-08-21 05:12:18
Codec configuration box : avcC
Audio
ID : 2
Format : AAC LC
Format/Info : Advanced Audio Codec Low Complexity
Codec ID : mp4a-40-2
Duration : 1 h 35 min
Bit rate mode : Variable
Bit rate : 126 kb/s
Channel(s) : 2 channels
Channel layout : L R
Sampling rate : 44.1 kHz
Frame rate : 43.066 FPS (1024 SPF)
Compression mode : Lossy
Stream size : 86.0 MiB (7%)
Default : Yes
Alternate group : 1
Encoded date : UTC 2014-08-21 05:12:09
Tagged date : UTC 2014-08-21 05:12:09

Скриншоты

TARONA TAQDIMOTI COLLECTION 2003 yil 2-qism

01:29:18
Video: MPEG4 Video (H264) 1280x720 25fps 1953kbps [V: ISO Media file produced by Google Inc. (h264 main L3.1, yuv420p, 1280x720, 1953 kb/s)]
Audio: AAC 44100Hz stereo 127kbps [A: ISO Media file produced by Google Inc. (aac lc, 44100 Hz, stereo, 127 kb/s)]

Информация по видеофайлу

General
Complete name : D:\KONSERTLAR\TARONA TAQDIMOTI COLLECTION 2000 tildan 2006 yilgacha\Tarona taqdimoti 2003 yil - Тарона такдимоти 2003 йил 2-qism 720p.mp4
Format : MPEG-4
Format profile : Base Media
Codec ID : isom (isom/iso2/avc1/mp41)
File size : 1.30 GiB
Duration : 1 h 29 min
Overall bit rate mode : Variable
Overall bit rate : 2 084 kb/s
Encoded date : UTC 2019-11-16 20:23:02
Tagged date : UTC 2019-11-16 20:23:02
Video
ID : 1
Format : AVC
Format/Info : Advanced Video Codec
Format profile : Main@L3.1
Format settings : CABAC / 3 Ref Frames
Format settings, CABAC : Yes
Format settings, Reference fra : 3 frames
Codec ID : avc1
Codec ID/Info : Advanced Video Coding
Duration : 1 h 29 min
Bit rate : 1 953 kb/s
Width : 1 280 pixels
Height : 720 pixels
Display aspect ratio : 16:9
Frame rate mode : Constant
Frame rate : 25.000 FPS
Color space : YUV
Chroma subsampling : 4:2:0
Bit depth : 8 bits
Scan type : Progressive
Bits/(Pixel*Frame) : 0.085
Stream size : 1.22 GiB (94%)
Title : ISO Media file produced by Google Inc.
Encoded date : UTC 2019-11-16 20:23:02
Tagged date : UTC 2019-11-16 20:23:02
Color range : Limited
Color primaries : BT.709
Transfer characteristics : BT.709
Matrix coefficients : BT.709
Codec configuration box : avcC
Audio
ID : 2
Format : AAC LC
Format/Info : Advanced Audio Codec Low Complexity
Codec ID : mp4a-40-2
Duration : 1 h 29 min
Bit rate mode : Variable
Bit rate : 128 kb/s
Channel(s) : 2 channels
Channel layout : L R
Sampling rate : 44.1 kHz
Frame rate : 43.066 FPS (1024 SPF)
Compression mode : Lossy
Stream size : 81.8 MiB (6%)
Title : ISO Media file produced by Google Inc.
Default : Yes
Alternate group : 1
Encoded date : UTC 2019-11-16 20:23:00
Tagged date : UTC 2019-11-16 20:23:00

Скриншоты

TARONA TAQDIMOTI COLLECTION 2004 yil

TARONA TAQDIMOTI COLLECTION 2004 yil 1-qism

01:46:13
Video: MPEG4 Video (H264) 1280x720 25fps 1570kbps [V: h264 main L3.1, yuv420p, 1280x720, 1570 kb/s]
Audio: AAC 44100Hz stereo 125kbps [A: SoundHandler (aac lc, 44100 Hz, stereo, 125 kb/s)]

Информация по видеофайлу

General
Complete name : D:\KONSERTLAR\TARONA TAQDIMOTI COLLECTION 2000 tildan 2006 yilgacha\Tarona taqdimoti 2004 yil - Тарона такдимоти 2004 йил 1-qism 720p.mp4
Format : MPEG-4
Format profile : Base Media
Codec ID : isom (isom/iso2/avc1/mp41)
File size : 1.26 GiB
Duration : 1 h 46 min
Overall bit rate mode : Variable
Overall bit rate : 1 699 kb/s
Encoded date : UTC 2014-08-31 03:11:38
Tagged date : UTC 2014-08-31 03:11:38
Video
ID : 1
Format : AVC
Format/Info : Advanced Video Codec
Format profile : Main@L3.1
Format settings : CABAC / 3 Ref Frames
Format settings, CABAC : Yes
Format settings, Reference fra : 3 frames
Codec ID : avc1
Codec ID/Info : Advanced Video Coding
Duration : 1 h 46 min
Bit rate : 1 571 kb/s
Width : 1 280 pixels
Height : 720 pixels
Display aspect ratio : 16:9
Frame rate mode : Constant
Frame rate : 25.000 FPS
Color space : YUV
Chroma subsampling : 4:2:0
Bit depth : 8 bits
Scan type : Progressive
Bits/(Pixel*Frame) : 0.068
Stream size : 1.17 GiB (92%)
Encoded date : UTC 2014-08-31 03:11:38
Tagged date : UTC 2014-08-31 03:11:38
Codec configuration box : avcC
Audio
ID : 2
Format : AAC LC
Format/Info : Advanced Audio Codec Low Complexity
Codec ID : mp4a-40-2
Duration : 1 h 46 min
Bit rate mode : Variable
Bit rate : 126 kb/s
Channel(s) : 2 channels
Channel layout : L R
Sampling rate : 44.1 kHz
Frame rate : 43.066 FPS (1024 SPF)
Compression mode : Lossy
Stream size : 95.4 MiB (7%)
Default : Yes
Alternate group : 1
Encoded date : UTC 2014-08-31 03:10:30
Tagged date : UTC 2014-08-31 03:10:30

Скриншоты

TARONA TAQDIMOTI COLLECTION 2004 yil 2-qism

01:20:37
Video: MPEG4 Video (H264) 1280x720 25fps 1933kbps [V: ISO Media file produced by Google Inc. (h264 main L3.1, yuv420p, 1280x720, 1933 kb/s)]
Audio: AAC 44100Hz stereo 127kbps [A: ISO Media file produced by Google Inc. (aac lc, 44100 Hz, stereo, 127 kb/s)]

Информация по видеофайлу

General
Complete name : D:\KONSERTLAR\TARONA TAQDIMOTI COLLECTION 2000 tildan 2006 yilgacha\Tarona taqdimoti 2004 yil - Тарона такдимоти 2004 йил 2-qism 720p.mp4
Format : MPEG-4
Format profile : Base Media
Codec ID : isom (isom/iso2/avc1/mp41)
File size : 1.16 GiB
Duration : 1 h 20 min
Overall bit rate mode : Variable
Overall bit rate : 2 064 kb/s
Encoded date : UTC 2019-11-16 20:46:45
Tagged date : UTC 2019-11-16 20:46:45
Video
ID : 1
Format : AVC
Format/Info : Advanced Video Codec
Format profile : Main@L3.1
Format settings : CABAC / 3 Ref Frames
Format settings, CABAC : Yes
Format settings, Reference fra : 3 frames
Codec ID : avc1
Codec ID/Info : Advanced Video Coding
Duration : 1 h 20 min
Bit rate : 1 933 kb/s
Width : 1 280 pixels
Height : 720 pixels
Display aspect ratio : 16:9
Frame rate mode : Constant
Frame rate : 25.000 FPS
Color space : YUV
Chroma subsampling : 4:2:0
Bit depth : 8 bits
Scan type : Progressive
Bits/(Pixel*Frame) : 0.084
Stream size : 1.09 GiB (94%)
Title : ISO Media file produced by Google Inc.
Encoded date : UTC 2019-11-16 20:46:45
Tagged date : UTC 2019-11-16 20:46:45
Color range : Limited
Color primaries : BT.709
Transfer characteristics : BT.709
Matrix coefficients : BT.709
Codec configuration box : avcC
Audio
ID : 2
Format : AAC LC
Format/Info : Advanced Audio Codec Low Complexity
Codec ID : mp4a-40-2
Duration : 1 h 20 min
Bit rate mode : Variable
Bit rate : 128 kb/s
Channel(s) : 2 channels
Channel layout : L R
Sampling rate : 44.1 kHz
Frame rate : 43.066 FPS (1024 SPF)
Compression mode : Lossy
Stream size : 73.8 MiB (6%)
Title : ISO Media file produced by Google Inc.
Default : Yes
Alternate group : 1
Encoded date : UTC 2019-11-16 20:46:44
Tagged date : UTC 2019-11-16 20:46:44

Скриншоты

TARONA TAQDIMOTI COLLECTION 2005 yil

TARONA TAQDIMOTI COLLECTION 2005 yil 1-qism

01:29:03
Video: MPEG4 Video (H264) 1280x720 25fps 1558kbps [V: h264 main L3.1, yuv420p, 1280x720, 1558 kb/s]
Audio: AAC 44100Hz stereo 125kbps [A: SoundHandler (aac lc, 44100 Hz, stereo, 125 kb/s)]

Информация по видеофайлу

General
Complete name : D:\KONSERTLAR\TARONA TAQDIMOTI COLLECTION 2000 tildan 2006 yilgacha\Tarona taqdimoti 2005 yil - Тарона такдимоти 2005 йил 1-qism 720p.mp4
Format : MPEG-4
Format profile : Base Media
Codec ID : isom (isom/iso2/avc1/mp41)
File size : 1.05 GiB
Duration : 1 h 29 min
Overall bit rate mode : Variable
Overall bit rate : 1 687 kb/s
Encoded date : UTC 2014-09-08 02:51:21
Tagged date : UTC 2014-09-08 02:51:21
Video
ID : 1
Format : AVC
Format/Info : Advanced Video Codec
Format profile : Main@L3.1
Format settings : CABAC / 3 Ref Frames
Format settings, CABAC : Yes
Format settings, Reference fra : 3 frames
Codec ID : avc1
Codec ID/Info : Advanced Video Coding
Duration : 1 h 29 min
Bit rate : 1 558 kb/s
Width : 1 280 pixels
Height : 720 pixels
Display aspect ratio : 16:9
Frame rate mode : Constant
Frame rate : 25.000 FPS
Color space : YUV
Chroma subsampling : 4:2:0
Bit depth : 8 bits
Scan type : Progressive
Bits/(Pixel*Frame) : 0.068
Stream size : 993 MiB (92%)
Encoded date : UTC 2014-09-08 02:51:21
Tagged date : UTC 2014-09-08 02:51:21
Codec configuration box : avcC
Audio
ID : 2
Format : AAC LC
Format/Info : Advanced Audio Codec Low Complexity
Codec ID : mp4a-40-2
Duration : 1 h 29 min
Bit rate mode : Variable
Bit rate : 126 kb/s
Channel(s) : 2 channels
Channel layout : L R
Sampling rate : 44.1 kHz
Frame rate : 43.066 FPS (1024 SPF)
Compression mode : Lossy
Stream size : 80.0 MiB (7%)
Default : Yes
Alternate group : 1
Encoded date : UTC 2014-09-08 02:51:04
Tagged date : UTC 2014-09-08 02:51:04

Скриншоты

TARONA TAQDIMOTI COLLECTION 2005 yil 2-qism

01:28:46
Video: MPEG4 Video (H264) 1280x720 25fps 1938kbps [V: ISO Media file produced by Google Inc. (h264 main L3.1, yuv420p, 1280x720, 1938 kb/s)]
Audio: AAC 44100Hz stereo 127kbps [A: ISO Media file produced by Google Inc. (aac lc, 44100 Hz, stereo, 127 kb/s)]

Информация по видеофайлу

General
Complete name : D:\KONSERTLAR\TARONA TAQDIMOTI COLLECTION 2000 tildan 2006 yilgacha\Tarona taqdimoti 2005 yil - Тарона такдимоти 2005 йил 2-qism 720p.mp4
Format : MPEG-4
Format profile : Base Media
Codec ID : isom (isom/iso2/avc1/mp41)
File size : 1.28 GiB
Duration : 1 h 28 min
Overall bit rate mode : Variable
Overall bit rate : 2 069 kb/s
Encoded date : UTC 2019-11-12 06:18:06
Tagged date : UTC 2019-11-12 06:18:06
Video
ID : 1
Format : AVC
Format/Info : Advanced Video Codec
Format profile : Main@L3.1
Format settings : CABAC / 3 Ref Frames
Format settings, CABAC : Yes
Format settings, Reference fra : 3 frames
Codec ID : avc1
Codec ID/Info : Advanced Video Coding
Duration : 1 h 28 min
Bit rate : 1 938 kb/s
Width : 1 280 pixels
Height : 720 pixels
Display aspect ratio : 16:9
Frame rate mode : Constant
Frame rate : 25.000 FPS
Color space : YUV
Chroma subsampling : 4:2:0
Bit depth : 8 bits
Scan type : Progressive
Bits/(Pixel*Frame) : 0.084
Stream size : 1.20 GiB (94%)
Title : ISO Media file produced by Google Inc.
Encoded date : UTC 2019-11-12 06:18:06
Tagged date : UTC 2019-11-12 06:18:06
Color range : Limited
Color primaries : BT.709
Transfer characteristics : BT.709
Matrix coefficients : BT.709
Codec configuration box : avcC
Audio
ID : 2
Format : AAC LC
Format/Info : Advanced Audio Codec Low Complexity
Codec ID : mp4a-40-2
Duration : 1 h 28 min
Bit rate mode : Variable
Bit rate : 128 kb/s
Channel(s) : 2 channels
Channel layout : L R
Sampling rate : 44.1 kHz
Frame rate : 43.066 FPS (1024 SPF)
Compression mode : Lossy
Stream size : 81.3 MiB (6%)
Title : ISO Media file produced by Google Inc.
Default : Yes
Alternate group : 1
Encoded date : UTC 2019-11-12 06:18:04
Tagged date : UTC 2019-11-12 06:18:04

Скриншоты

TARONA TAQDIMOTI COLLECTION 2006 yil

02:00:43
Video: MPEG4 Video (H264) 1280x720 25fps 1518kbps [V: h264 main L3.1, yuv420p, 1280x720, 1518 kb/s]
Audio: AAC 44100Hz stereo 125kbps [A: SoundHandler (aac lc, 44100 Hz, stereo, 125 kb/s)]

Информация по видеофайлу

General
Complete name : D:\KONSERTLAR\TARONA TAQDIMOTI COLLECTION 2000 tildan 2006 yilgacha\Tarona taqdimoti 2006 yil - Тарона такдимоти 2006 йил 720p.mp4
Format : MPEG-4
Format profile : Base Media
Codec ID : isom (isom/iso2/avc1/mp41)
File size : 1.39 GiB
Duration : 2 h 0 min
Overall bit rate mode : Variable
Overall bit rate : 1 647 kb/s
Encoded date : UTC 2014-11-17 03:36:44
Tagged date : UTC 2014-11-17 03:36:44
Video
ID : 1
Format : AVC
Format/Info : Advanced Video Codec
Format profile : Main@L3.1
Format settings : CABAC / 3 Ref Frames
Format settings, CABAC : Yes
Format settings, Reference fra : 3 frames
Codec ID : avc1
Codec ID/Info : Advanced Video Coding
Duration : 2 h 0 min
Bit rate : 1 519 kb/s
Width : 1 280 pixels
Height : 720 pixels
Display aspect ratio : 16:9
Frame rate mode : Constant
Frame rate : 25.000 FPS
Color space : YUV
Chroma subsampling : 4:2:0
Bit depth : 8 bits
Scan type : Progressive
Bits/(Pixel*Frame) : 0.066
Stream size : 1.28 GiB (92%)
Encoded date : UTC 2014-11-17 03:36:44
Tagged date : UTC 2014-11-17 03:36:44
Codec configuration box : avcC
Audio
ID : 2
Format : AAC LC
Format/Info : Advanced Audio Codec Low Complexity
Codec ID : mp4a-40-2
Duration : 2 h 0 min
Bit rate mode : Variable
Bit rate : 126 kb/s
Channel(s) : 2 channels
Channel layout : L R
Sampling rate : 44.1 kHz
Frame rate : 43.066 FPS (1024 SPF)
Compression mode : Lossy
Stream size : 108 MiB (8%)
Default : Yes
Alternate group : 1
Encoded date : UTC 2014-11-17 03:36:27
Tagged date : UTC 2014-11-17 03:36:27

Скриншоты

Показать сообщения:    

Текущее время: 22-Окт 16:26

Часовой пояс: UTC - 5



Вы не можете начинать темы
Вы не можете отвечать на сообщения
Вы не можете редактировать свои сообщения
Вы не можете удалять свои сообщения
Вы не можете голосовать в опросах
Вы не можете прикреплять файлы к сообщениям
Вы не можете скачивать файлы