Регистрация ·
Имя: Пароль:  
· Забыли пароль? · Вопросы от гостей
Kliplar To'plami
O'zbek Tilida
Rizanova
Qo'riqchi ayol
O'zbek Tilida
BluRay 1080p
SHAFT
O'zbek Tilida
BDRip
SHAFT
O'zbek Tilida
WEBRip 1080p
Javohir politsiyachi
O'zbek Tilida
BDRip-AVC
So'nggi Ritsarlar
O'zbek Tilida
BluRay 1080p
Агент Ева
O'zbek Tilida
WEB-Rip
Анна
iTunes
BDRip 1080p
Анна
iTunes
BDRip-AVC
Анна
iTunes
BDRip
Mulan
O'zbek Tilida
WEBRip 1080p HEVC x265
Мулан
IdeaFilm
WEB-DL 720p
Мулан
IdeaFilm
WEB-DL 1080p
Мулан
IdeaFilm
WEB-DL 2160p
Temir Odam Uchligi
O'zbek Tilida
BluRay, 1080p, HEVC, x265, 10bit
Kliplar To'plami
O'zbek Tilida
Rizanova
Singularity
Repack
Mechanics
Tom Raider
Repack
Xatab
Far Cry New Dawn
Repack
Xatab
Far Cry 3
Repack
Xatab
Фитнес
Россия
WEB-DL 720p
Resident Evil
Гексалогия
Repack
Godzilla 2; Mahluqlar Qiroli
O'zbek Tilida
WEBRip HEVC 720p
Olimpning Qulashi
O'zbek Tilida
BDRip
X-Odamlar Qora Qaqnus
O'zbek Tilida
BDRip 1080p
Sevishganlar
O'zbek Tilida
HDRip
Maymunlar Sayyorasi Uchlik
O'zbek Tilida
BDRip
Koko Siri
O'zbek Tilida
BDRip-AVC
Спартак
РенТВ
BDRip 720p
Shelbilar oilasi
O'zbek Tilida
x265 1080p WEBRip 10bit
Однажды на востоке
Лицензия
BDRip 1080p
Yason va Argonaftlar
O'zbek Tilida
DVDRip x264
Shelbilar oilasi
O'zbek Tilida
BluRay 1080p x264
Qotillik Uchun Uch Kun
O'zbek Tilida
BluRay 1080p x264
Ko'd 211
O'zbek + Rus + Ing
BluRay 1080p
Интрижка
iTunes
WEB-DLRip
WarFace
Лицензия
Русский
Хоббит / Властелин колец
Коллекция
BDRip 1080p H264
SamDrivers
x32/x64
Repack
Чудесный доктор
WEB-DL 1080p
Турция
Острые козырьки
H265 1080p BluRay
Uzb+Ing
S.T.A.L.K.E.R
Анталогия
Repack
Зов джунглей
Рус
WEB-DL 1080p
Ajal Poygasi
Uzb Rus Ing
BrRip 1080p H264
Yengilmas Gvardiya
O'zbek Tilida
WEB-DL 1080p H264
Suv va Olov
O'zbek Tilida
BDRip H264
S.T.A.L.K.E.R.
Анталогия Модов
GSC Game World
GTA 5
RePack
Лицензия
Tunnel: Hayot uchun xavfli
Uzb Tilida
WEB-DL 1080p
Уважаемые гости сайта! Добро Пожаловать на наш торрент трекер,где Вы можете бесплатно скачать любой Софт,Фильмы,Музыку и многое другое! А так же постоянно ведется набор модераторов и релизеров. Зарегистрируйтесь сейчас, чтобы получить доступ ко всем функциям. После регистрации или входа на сайт вы сможете создавать темы, отвечать на сообщения и скачивать файлы.

FERUZA JUMANIYOZOVA KONSERT COLLECTION 2005, 2007 [Konsert, WEBRip 480p,]

Статистика раздачи
Скачал: [ 3 ]
 
     
 
 
Автор Сообщение

JAMSHIDDIN85 ®

Не в сети

5410

Пол: Мужской

Стаж: 1 год 3 месяца

Сообщений: 373

Карма: 20

[+]

Провайдер: TPS TPS

Тарифный план: 1.5 Mbit / 5 Mbit sek (круглосуточно)

Наличие запрета:



Награды: Нет

[Профиль] ЛС

Создавать темы 21-Ноя-2019 09:55

Цитировать

FERUZA JUMANIYOZOVA KONSERT COLLECTION
Chiqqan Yili: 2005, 2007.
Davlat: Uzbekistan
Janr: Konsert
Davomiyligi: 2 ~ 01:53:00, 01:36:58
Tarjima: O'zbek Tilida
Sifat: WEBRip 480p.
Format: MP4
Video: MPEG4 Video (H264) 854x480 25fps 813kbps [V: h264 main L3.0, yuv420p, 854x480, 813 kb/s]
Audio: AAC 44100Hz stereo 125kbps [A: SoundHandler (aac lc, 44100 Hz, stereo, 125 kb/s)]

FERUZA JUMANIYOZOVA - KEL AZIZAM 2005, 480P

Video: MPEG4 Video (H264) 854x480 25fps 813kbps [V: h264 main L3.0, yuv420p, 854x480, 813 kb/s]
Audio: AAC 44100Hz stereo 125kbps [A: SoundHandler (aac lc, 44100 Hz, stereo, 125 kb/s)]

Информация по видеофайлу

General
Complete name : D:\KONSERTLAR\FERUZA JUMANIYOZOVA KONSERT COLLECTION\FERUZA JUMANIYOZOVA - KEL AZIZAM 2005-йилги концерт дастури 480P.mp4
Format : MPEG-4
Format profile : Base Media
Codec ID : isom (isom/iso2/avc1/mp41)
File size : 762 MiB
Duration : 1 h 52 min
Overall bit rate mode : Variable
Overall bit rate : 942 kb/s
Encoded date : UTC 2018-03-18 10:25:36
Tagged date : UTC 2018-03-18 10:25:36
Video
ID : 1
Format : AVC
Format/Info : Advanced Video Codec
Format profile : Main@L3
Format settings : CABAC / 3 Ref Frames
Format settings, CABAC : Yes
Format settings, Reference fra : 3 frames
Codec ID : avc1
Codec ID/Info : Advanced Video Coding
Duration : 1 h 52 min
Bit rate : 813 kb/s
Width : 854 pixels
Height : 480 pixels
Display aspect ratio : 16:9
Frame rate mode : Constant
Frame rate : 25.000 FPS
Color space : YUV
Chroma subsampling : 4:2:0
Bit depth : 8 bits
Scan type : Progressive
Bits/(Pixel*Frame) : 0.079
Stream size : 657 MiB (86%)
Encoded date : UTC 2018-03-18 10:25:36
Tagged date : UTC 2018-03-18 10:25:36
Color range : Limited
Color primaries : BT.601 NTSC
Transfer characteristics : BT.709
Matrix coefficients : BT.601
Codec configuration box : avcC
Audio
ID : 2
Format : AAC LC
Format/Info : Advanced Audio Codec Low Complexity
Codec ID : mp4a-40-2
Duration : 1 h 52 min
Bit rate mode : Variable
Bit rate : 126 kb/s
Channel(s) : 2 channels
Channel layout : L R
Sampling rate : 44.1 kHz
Frame rate : 43.066 FPS (1024 SPF)
Compression mode : Lossy
Stream size : 102 MiB (13%)
Default : Yes
Alternate group : 1
Encoded date : UTC 2018-03-18 10:30:28
Tagged date : UTC 2018-03-18 10:30:28

Скриншоты

FERUZA JUMANIYOZOVA - SIZNIKI SAN'ATIM SIZNIKI QALBIM 2007, 480P

Video: MPEG4 Video (H264) 854x480 25fps 967kbps [V: h264 main L3.0, yuv420p, 854x480, 967 kb/s]
Audio: AAC 44100Hz stereo 125kbps [A: SoundHandler (aac lc, 44100 Hz, stereo, 125 kb/s)]

Информация по видеофайлу

General
Complete name : D:\KONSERTLAR\FERUZA JUMANIYOZOVA KONSERT COLLECTION\FERUZA JUMANIYOZOVA - SIZNIKI SAN'ATIM SIZNIKI QALBIM 2007-йилги концерт дастури 480P.mp4
Format : MPEG-4
Format profile : Base Media
Codec ID : isom (isom/iso2/avc1/mp41)
File size : 761 MiB
Duration : 1 h 36 min
Overall bit rate mode : Variable
Overall bit rate : 1 097 kb/s
Encoded date : UTC 2017-12-20 10:43:46
Tagged date : UTC 2017-12-20 10:43:46
Video
ID : 1
Format : AVC
Format/Info : Advanced Video Codec
Format profile : Main@L3
Format settings : CABAC / 3 Ref Frames
Format settings, CABAC : Yes
Format settings, Reference fra : 3 frames
Codec ID : avc1
Codec ID/Info : Advanced Video Coding
Duration : 1 h 36 min
Bit rate : 968 kb/s
Width : 854 pixels
Height : 480 pixels
Display aspect ratio : 16:9
Frame rate mode : Constant
Frame rate : 25.000 FPS
Color space : YUV
Chroma subsampling : 4:2:0
Bit depth : 8 bits
Scan type : Progressive
Bits/(Pixel*Frame) : 0.094
Stream size : 671 MiB (88%)
Encoded date : UTC 2017-12-20 10:43:46
Tagged date : UTC 2017-12-20 10:43:46
Color range : Limited
Color primaries : BT.601 NTSC
Transfer characteristics : BT.709
Matrix coefficients : BT.601
Codec configuration box : avcC
Audio
ID : 2
Format : AAC LC
Format/Info : Advanced Audio Codec Low Complexity
Codec ID : mp4a-40-2
Duration : 1 h 36 min
Bit rate mode : Variable
Bit rate : 126 kb/s
Channel(s) : 2 channels
Channel layout : L R
Sampling rate : 44.1 kHz
Frame rate : 43.066 FPS (1024 SPF)
Compression mode : Lossy
Stream size : 87.1 MiB (11%)
Default : Yes
Alternate group : 1
Encoded date : UTC 2017-12-20 10:48:13
Tagged date : UTC 2017-12-20 10:48:13

Скриншоты

Показать сообщения:    

Текущее время: 22-Окт 13:23

Часовой пояс: UTC - 5



Вы не можете начинать темы
Вы не можете отвечать на сообщения
Вы не можете редактировать свои сообщения
Вы не можете удалять свои сообщения
Вы не можете голосовать в опросах
Вы не можете прикреплять файлы к сообщениям
Вы не можете скачивать файлы