Регистрация ·
Имя: Пароль:  
· Забыли пароль? · Вопросы от гостей
Kliplar To'plami
O'zbek Tilida
Rizanova
Qo'riqchi ayol
O'zbek Tilida
BluRay 1080p
SHAFT
O'zbek Tilida
BDRip
SHAFT
O'zbek Tilida
WEBRip 1080p
Javohir politsiyachi
O'zbek Tilida
BDRip-AVC
So'nggi Ritsarlar
O'zbek Tilida
BluRay 1080p
Агент Ева
O'zbek Tilida
WEB-Rip
Анна
iTunes
BDRip 1080p
Анна
iTunes
BDRip-AVC
Анна
iTunes
BDRip
Mulan
O'zbek Tilida
WEBRip 1080p HEVC x265
Мулан
IdeaFilm
WEB-DL 720p
Мулан
IdeaFilm
WEB-DL 1080p
Мулан
IdeaFilm
WEB-DL 2160p
Temir Odam Uchligi
O'zbek Tilida
BluRay, 1080p, HEVC, x265, 10bit
Kliplar To'plami
O'zbek Tilida
Rizanova
Singularity
Repack
Mechanics
Tom Raider
Repack
Xatab
Far Cry New Dawn
Repack
Xatab
Far Cry 3
Repack
Xatab
Фитнес
Россия
WEB-DL 720p
Resident Evil
Гексалогия
Repack
Godzilla 2; Mahluqlar Qiroli
O'zbek Tilida
WEBRip HEVC 720p
Olimpning Qulashi
O'zbek Tilida
BDRip
X-Odamlar Qora Qaqnus
O'zbek Tilida
BDRip 1080p
Sevishganlar
O'zbek Tilida
HDRip
Maymunlar Sayyorasi Uchlik
O'zbek Tilida
BDRip
Koko Siri
O'zbek Tilida
BDRip-AVC
Спартак
РенТВ
BDRip 720p
Shelbilar oilasi
O'zbek Tilida
x265 1080p WEBRip 10bit
Однажды на востоке
Лицензия
BDRip 1080p
Yason va Argonaftlar
O'zbek Tilida
DVDRip x264
Shelbilar oilasi
O'zbek Tilida
BluRay 1080p x264
Qotillik Uchun Uch Kun
O'zbek Tilida
BluRay 1080p x264
Ko'd 211
O'zbek + Rus + Ing
BluRay 1080p
Интрижка
iTunes
WEB-DLRip
WarFace
Лицензия
Русский
Хоббит / Властелин колец
Коллекция
BDRip 1080p H264
SamDrivers
x32/x64
Repack
Чудесный доктор
WEB-DL 1080p
Турция
Острые козырьки
H265 1080p BluRay
Uzb+Ing
S.T.A.L.K.E.R
Анталогия
Repack
Зов джунглей
Рус
WEB-DL 1080p
Ajal Poygasi
Uzb Rus Ing
BrRip 1080p H264
Yengilmas Gvardiya
O'zbek Tilida
WEB-DL 1080p H264
Suv va Olov
O'zbek Tilida
BDRip H264
S.T.A.L.K.E.R.
Анталогия Модов
GSC Game World
GTA 5
RePack
Лицензия
Tunnel: Hayot uchun xavfli
Uzb Tilida
WEB-DL 1080p
Уважаемые гости сайта! Добро Пожаловать на наш торрент трекер,где Вы можете бесплатно скачать любой Софт,Фильмы,Музыку и многое другое! А так же постоянно ведется набор модераторов и релизеров. Зарегистрируйтесь сейчас, чтобы получить доступ ко всем функциям. После регистрации или входа на сайт вы сможете создавать темы, отвечать на сообщения и скачивать файлы.

MILLION KONSERT ™ COLLECTION (Davron Kabulov) [2016, 2017, 2018, 2019, Kulgu, WEBRip 1080p]

Статистика раздачи
Скачал: [ 5 ]
 
     
 
 
Автор Сообщение

JAMSHIDDIN85 ®

Не в сети

5410

Пол: Мужской

Стаж: 1 год 3 месяца

Сообщений: 373

Карма: 20

[+]

Провайдер: TPS TPS

Тарифный план: 1.5 Mbit / 5 Mbit sek (круглосуточно)

Наличие запрета:



Награды: Нет

[Профиль] ЛС

Создавать темы 21-Ноя-2019 11:13

Цитировать

MILLION KONSERT ™ COLLECTION
Chiqqan Yili: 2016, 2017, 2018, 2019.
Davlat: Uzbekistan
Janr: Kulgu
Davomiyligi: 5 ~ 02:29:29
Tarjima: O'zbek Tilida-Rejissyor: Davron Kabulov-Rollarda: Umid Haydarov, Alisher Botirov, Maʻruf Nosirov, Durdona Qurbonova, Feruza Normatova, Mirkomil Musayev, Bekzod Komiljonov-Sobiq Aʻzolari: Otabek Mirzaholov, Ahmad Temirov, Umid Umarov, Shaxlo Zoirova-Tavsif: «Million» jamoasi — Oʻzbekistondagi hajviy-kulgu jamoasi. 2014-yilda tashkil topgan. Guruh hozirda 8 nafar ishtirokchidan iborat. Ishtirokchilarning deyarli hammasi O'zbekiston Milliy universitetini tamomlashgan. Oliygoh nomidan "Quvnoqlar va zukkolar" (QvZ) shousida qatnashish orqali tanilishgan. Oʻzlarining qaltis hazillari tufayli guruh bir necha marta tanqid ostiga olingan.-Sifat: WEBRip 1080p
Format: MP4
Video: MPEG4, AVC, 2828 kb/s, 1920x1080
Audio: AAC-LC, 44.1 kHZ, 2 ch, 128 kb/s-

MILLION JAMOASI KONSERT DASTURI 2016 (FULL HD) 1080p

MILLION JAMOASI KONSERT DASTURI 2017 (FULL HD) 1080p

MILLION JAMOASI KONSERT DASTURI 2018 aprel (FULL HD) 1080p

MILLION JAMOASI KONSERT DASTURI 2018 oktyabr (FULL HD) 1080p

MILLION JAMOASI ™ KONSERT DASTURI 2019 10 aprel (FULL HD) 1080p

MediaInfo

General
Complete name : D:\KONSERT\O'ZBEK\KONSERT 2019\Million Jamoasi ™ 2019 yil 10 aprel.mp4
Format : MPEG-4
Format profile : Base Media
Codec ID : isom (isom/iso2/avc1/mp41)
File size : 3.09 GiB
Duration : 2 h 29 min
Overall bit rate mode : Variable
Overall bit rate : 2 960 kb/s
Encoded date : UTC 2019-10-31 19:19:09
Tagged date : UTC 2019-10-31 19:19:09
Video
ID : 1
Format : AVC
Format/Info : Advanced Video Codec
Format profile : High@L4
Format settings : CABAC / 3 Ref Frames
Format settings, CABAC : Yes
Format settings, Reference fra : 3 frames
Codec ID : avc1
Codec ID/Info : Advanced Video Coding
Duration : 2 h 29 min
Bit rate : 2 828 kb/s
Width : 1 920 pixels
Height : 1 080 pixels
Display aspect ratio : 16:9
Frame rate mode : Constant
Frame rate : 29.970 (30000/1001) FPS
Color space : YUV
Chroma subsampling : 4:2:0
Bit depth : 8 bits
Scan type : Progressive
Bits/(Pixel*Frame) : 0.046
Stream size : 2.95 GiB (96%)
Title : ISO Media file produced by Google Inc.
Writing library : x264 core 155 r2901 7d0ff22
Encoded date : UTC 2019-10-31 19:19:09
Tagged date : UTC 2019-10-31 19:19:09
Color range : Limited
Color primaries : BT.709
Transfer characteristics : BT.709
Matrix coefficients : BT.709
Codec configuration box : avcC
Audio
ID : 2
Format : AAC LC
Format/Info : Advanced Audio Codec Low Complexity
Codec ID : mp4a-40-2
Duration : 2 h 29 min
Bit rate mode : Variable
Bit rate : 128 kb/s
Channel(s) : 2 channels
Channel layout : L R
Sampling rate : 44.1 kHz
Frame rate : 43.066 FPS (1024 SPF)
Compression mode : Lossy
Stream size : 137 MiB (4%)
Title : ISO Media file produced by Google Inc.
Default : Yes
Alternate group : 1
Encoded date : UTC 2019-10-31 17:36:51
Tagged date : UTC 2019-10-31 17:36:51

Lavhalar




Последний раз редактировалось: JAMSHIDDIN85 (2020-10-13 08:08), всего редактировалось 1 раз

-746

Создавать темы 22-Ноя-2019 06:17 (спустя 19 часов)

Топик был перенесен из форума Для пробных раздач в форум Музыкальные видеоклипы и концерты
Admin
Показать сообщения:    

Текущее время: 28-Окт 15:53

Часовой пояс: UTC - 5



Вы не можете начинать темы
Вы не можете отвечать на сообщения
Вы не можете редактировать свои сообщения
Вы не можете удалять свои сообщения
Вы не можете голосовать в опросах
Вы не можете прикреплять файлы к сообщениям
Вы не можете скачивать файлы