Регистрация ·
Имя: Пароль:  
· Забыли пароль? · Вопросы от гостей
Javohir politsiyachi
O'zbek Tilida
BDRip-AVC
So'nggi Ritsarlar
O'zbek Tilida
BluRay 1080p
Агент Ева
O'zbek Tilida
WEB-Rip
Анна
iTunes
BDRip 1080p
Анна
iTunes
BDRip-AVC
Анна
iTunes
BDRip
Mulan
O'zbek Tilida
WEBRip 1080p HEVC x265
Мулан
IdeaFilm
WEB-DL 720p
Мулан
IdeaFilm
WEB-DL 1080p
Мулан
IdeaFilm
WEB-DL 2160p
Temir Odam Uchligi
O'zbek Tilida
BluRay, 1080p, HEVC, x265, 10bit
Kliplar To'plami
O'zbek Tilida
Rizanova
Singularity
Repack
Mechanics
Tom Raider
Repack
Xatab
Far Cry New Dawn
Repack
Xatab
Far Cry 3
Repack
Xatab
Фитнес
Россия
WEB-DL 720p
Resident Evil
Гексалогия
Repack
Godzilla 2; Mahluqlar Qiroli
O'zbek Tilida
WEBRip HEVC 720p
Olimpning Qulashi
O'zbek Tilida
BDRip
X-Odamlar Qora Qaqnus
O'zbek Tilida
BDRip 1080p
Sevishganlar
O'zbek Tilida
HDRip
Maymunlar Sayyorasi Uchlik
O'zbek Tilida
BDRip
Koko Siri
O'zbek Tilida
BDRip-AVC
Спартак
РенТВ
BDRip 720p
Shelbilar oilasi
O'zbek Tilida
x265 1080p WEBRip 10bit
Однажды на востоке
Лицензия
BDRip 1080p
Yason va Argonaftlar
O'zbek Tilida
DVDRip x264
Shelbilar oilasi
O'zbek Tilida
BluRay 1080p x264
Qotillik Uchun Uch Kun
O'zbek Tilida
BluRay 1080p x264
Ko'd 211
O'zbek + Rus + Ing
BluRay 1080p
Интрижка
iTunes
WEB-DLRip
WarFace
Лицензия
Русский
Хоббит / Властелин колец
Коллекция
BDRip 1080p H264
SamDrivers
x32/x64
Repack
Чудесный доктор
WEB-DL 1080p
Турция
Острые козырьки
H265 1080p BluRay
Uzb+Ing
S.T.A.L.K.E.R
Анталогия
Repack
Зов джунглей
Рус
WEB-DL 1080p
Ajal Poygasi
Uzb Rus Ing
BrRip 1080p H264
Yengilmas Gvardiya
O'zbek Tilida
WEB-DL 1080p H264
Suv va Olov
O'zbek Tilida
BDRip H264
S.T.A.L.K.E.R.
Анталогия Модов
GSC Game World
GTA 5
RePack
Лицензия
Tunnel: Hayot uchun xavfli
Uzb Tilida
WEB-DL 1080p
Уважаемые гости сайта! Добро Пожаловать на наш торрент трекер,где Вы можете бесплатно скачать любой Софт,Фильмы,Музыку и многое другое! А так же постоянно ведется набор модераторов и релизеров. Зарегистрируйтесь сейчас, чтобы получить доступ ко всем функциям. После регистрации или входа на сайт вы сможете создавать темы, отвечать на сообщения и скачивать файлы.

Флэш / The Flash / Сезон 1,2,3,4,5,6 / Серии 1-133 из 133 (Дермотт Даунс, Ральф Хемекер, Стефан Плещински) [2014-2020, Боевик, Приключенческий, Драма, Комиксы, WEB-DLRip] MVO (LostFilm) 1080p

Статистика раздачи
Нет
 
     
 
 
Автор Сообщение

Admin ®

Не в сети

2

VIP пользователь

Пол: Мужской

Стаж: 4 года 4 месяца

Сообщений: 143

Карма: 787

[+]

Провайдер: UzOnline UzOnline

Тарифный план: UNLIME 20 Mbit/sekund

Наличие запрета:



Награды: Нет

[Профиль] ЛС

Создавать темы 28-Ноя-2019 11:07

Цитировать

Флэш / The Flash Премьера: 07 октября 2014
Год выпуска: 2014-2020
Канал, Страна: The CW (США)
Рейтинг IMDb: 7.8
Жанр: Фантастика, Фэнтези, Боевик, Драма, Приключения, Комиксы
Тип: По комиксам DC Comics, Супергерои
Официальный сайт: http://www.cwtv.com/shows/the-flash/
Продолжительность: 133 ~ 00:44:00
Перевод: Профессиональный (многоголосый, закадровый)(LostFilm)
Режиссер: Дэвид Наттер
В ролях: Грант Гастин, Кэндис Паттон, Даниэль Панабэйкер, Рик Коснетт, Карлос Валдес, Томас Кэвэна
Описание: Когда Барри Аллен был маленьким, больше всего на свете ему хотелось быть супергероем — тем, кто превосходит лимиты человеческого организма и использует во благо данную ему силу. Когда Барри было одиннадцать лет, он на собственном опыте узнал, что люди с необычными способностями действительно существуют: его мать была убита одним из таких людей. Повзрослев и став судмедэкспертом, Барри не отбросил мыслей о сверхлюдях и продолжал искать доказательства их существования, что не лучшим образом сказывалось на его репутации и общении с коллегами. Впрочем, однажды его усилия были вознаграждены…
Качество: WEB-DLRip
Формат: MKV
Video: MPEG4 Video (H264) 1920x1080 23.976fps [V: h264 high L4.0, yuv420p, 1920x1080 [default]]
Audio: Dolby AC3 48000Hz stereo 384kbps [A: ac3, 48000 Hz, stereo, 384 kb/s [default]]
Audio: Dolby AC3 48000Hz stereo 384kbps [A: ac3, 48000 Hz, stereo, 384 kb/s]

Флэш / The Flash / Сезон: 1 полный / Серии: 1-23 из 23 (Дэвид Наттер) [2014, фантастика, фэнтези, боевик, драма, приключения, WEB-DLRip] MVO LostFilm 1080р

Флэш / The Flash
Год выпуска: 2014
Страна: США
Жанр: фантастика, фэнтези, боевик, драма, приключения
Продолжительность: ~ 00:44:00
Перевод: Профессиональный (многоголосый, закадровый)(LostFilm)
Режиссер: Дэвид Наттер
В ролях: Грант Гастин, Кэндис Паттон, Даниэль Панабэйкер, Рик Коснетт, Карлос Валдес, Томас Кэвэна
Описание: Когда Барри Аллен был маленьким, больше всего на свете ему хотелось быть супергероем — тем, кто превосходит лимиты человеческого организма и использует во благо данную ему силу. Когда Барри было одиннадцать лет, он на собственном опыте узнал, что люди с необычными способностями действительно существуют: его мать была убита одним из таких людей. Повзрослев и став судмедэкспертом, Барри не отбросил мыслей о сверхлюдях и продолжал искать доказательства их существования, что не лучшим образом сказывалось на его репутации и общении с коллегами. Впрочем, однажды его усилия были вознаграждены…
Качество: WEB-DLRip
Формат: MKV
Video: MPEG4 Video (H264) 1920x1080 23.976fps [V: h264 high L4.0, yuv420p, 1920x1080 [default]]
Audio: Dolby AC3 48000Hz stereo 384kbps [A: ac3, 48000 Hz, stereo, 384 kb/s [default]]
Audio: Dolby AC3 48000Hz stereo 384kbps [A: ac3, 48000 Hz, stereo, 384 kb/s]

Информация по видеофайлу

General
Unique ID : 182871776616398238215795638290335687798 (0x8993D2B3DB14BCC2A18BDA1C5CE46476)
Complete name : H:\Downloads\The Flash 1,2,3,4,5 - SEZON - LostFilm.TV [1080p]\The Flash 1 - LostFilm.TV [1080p]\The.Flash.S01E01.1080p.rus.LostFilm.TV.mkv
Format : Matroska
Format version : Version 2
File size : 1.88 GiB
Duration : 44 min 42 s
Overall bit rate : 6 012 kb/s
Encoded date : UTC 2014-10-09 20:14:38
Writing application : mkvmerge v4.2.0 ('No Talking') сборка от Jul 28 2010 18:38:23
Writing library : libebml v1.0.0 + libmatroska v1.0.0
Video
ID : 1
Format : AVC
Format/Info : Advanced Video Codec
Format profile : High@L4
Format settings : CABAC / 2 Ref Frames
Format settings, CABAC : Yes
Format settings, Reference fra : 2 frames
Codec ID : V_MPEG4/ISO/AVC
Duration : 44 min 42 s
Bit rate : 5 242 kb/s
Width : 1 920 pixels
Height : 1 080 pixels
Display aspect ratio : 16:9
Frame rate mode : Constant
Frame rate : 23.976 (23976/1000) FPS
Color space : YUV
Chroma subsampling : 4:2:0
Bit depth : 8 bits
Scan type : Progressive
Bits/(Pixel*Frame) : 0.105
Stream size : 1.60 GiB (85%)
Writing library : x264 core 112 r1834 a51816a
Encoding settings : cabac=1 / ref=1 / deblock=1:0:0 / analyse=0x3:0x133 / me=umh / subme=7 / psy=1 / psy_rd=1.00:0.00 / mixed_ref=0 / me_range=16 / chroma_me=1 / trellis=1 / 8x8dct=1 / cqm=0 / deadzone=21,11 / fast_pskip=1 / chroma_qp_offset=-2 / threads=6 / sliced_threads=0 / nr=0 / decimate=1 / interlaced=0 / constrained_intra=0 / bframes=5 / b_pyramid=0 / b_adapt=1 / b_bias=0 / direct=3 / weightb=1 / open_gop=0 / weightp=2 / keyint=250 / keyint_min=25 / scenecut=40 / intra_refresh=0 / rc_lookahead=40 / rc=2pass / mbtree=1 / bitrate=5242 / ratetol=1.0 / qcomp=0.60 / qpmin=0 / qpmax=51 / qpstep=4 / cplxblur=20.0 / qblur=0.5 / ip_ratio=1.40 / aq=1:1.00
Default : Yes
Forced : No
Audio #1
ID : 2
Format : AC-3
Format/Info : Audio Coding 3
Commercial name : Dolby Digital
Codec ID : A_AC3
Duration : 44 min 42 s
Bit rate mode : Constant
Bit rate : 384 kb/s
Channel(s) : 2 channels
Channel layout : L R
Sampling rate : 48.0 kHz
Frame rate : 31.250 FPS (1536 SPF)
Bit depth : 16 bits
Compression mode : Lossy
Stream size : 123 MiB (6%)
Service kind : Complete Main
Default : Yes
Forced : No
Audio #2
ID : 3
Format : AC-3
Format/Info : Audio Coding 3
Commercial name : Dolby Digital
Codec ID : A_AC3
Duration : 44 min 42 s
Bit rate mode : Constant
Bit rate : 384 kb/s
Channel(s) : 2 channels
Channel layout : L R
Sampling rate : 48.0 kHz
Frame rate : 31.250 FPS (1536 SPF)
Bit depth : 16 bits
Compression mode : Lossy
Stream size : 123 MiB (6%)
Service kind : Complete Main
Default : No
Forced : No

Скриншоты

1 сезон спипок серие

Статус: Завершен
Год: 2014
Количество вышедших серий: 23 (из 23)
1 сезон 23 серия
Как раз вовремя
Fast Enough
Ru: 21.05.2015
Eng: 19.05.2015
1 сезон 22 серия
Безумное небо
Rogue Air
Ru: 14.05.2015
Eng: 12.05.2015
1 сезон 21 серия
Гродд жив
Grodd Lives
Ru: 08.05.2015
Eng: 05.05.2015
1 сезон 20 серия
Западня
The Trap
Ru: 30.04.2015
Eng: 28.04.2015
1 сезон 19 серия
Кто вы, Харрисон Уэллс?
Who Is Harrison Wells?
Ru: 23.04.2015
Eng: 21.04.2015
1 сезон 18 серия
Звёздная команда
All-Star Team-Up
Ru: 16.04.2015
Eng: 14.04.2015
1 сезон 17 серия
Трюкачи
Tricksters
Ru: 02.04.2015
Eng: 31.03.2015
1 сезон 16 серия
Безумное время
Rogue Time
Ru: 26.03.2015
Eng: 24.03.2015
1 сезон 15 серия
Время на исходе
Out of Time
Ru: 19.03.2015
Eng: 17.03.2015
1 сезон 14 серия
Осадок
Fallout
Ru: 19.02.2015
Eng: 17.02.2015
1 сезон 13 серия
Ядерный человек
The Nuclear Man
Ru: 12.02.2015
Eng: 10.02.2015
1 сезон 12 серия
Без ума от тебя
Crazy for You
Ru: 05.02.2015
Eng: 03.02.2015
1 сезон 11 серия
Шум и ярость
The Sound and the Fury
Ru: 29.01.2015
Eng: 27.01.2015
1 сезон 10 серия
Месть негодяев
Revenge of the Rogues
Ru: 22.01.2015
Eng: 20.01.2015
1 сезон 9 серия
Человек в желтом
The Man in the Yellow Suit
Ru: 11.12.2014
Eng: 09.12.2014
1 сезон 8 серия
Флэш против Стрелы
Flash vs. Arrow 1
Ru: 05.12.2014
Eng: 02.12.2014
1 сезон 7 серия
Отключение энергии
Power Outage
Ru: 27.11.2014
Eng: 25.11.2014
1 сезон 6 серия
Рождение Флэша
The Flash Is Born
Ru: 20.11.2014
Eng: 18.11.2014
1 сезон 5 серия
Пластик
Plastique
Ru: 14.11.2014
Eng: 11.11.2014
1 сезон 4 серия
Да наступит беспредел
Going Rogue
Ru: 30.10.2014
Eng: 28.10.2014
1 сезон 3 серия
То, от чего нельзя убежать
Things You Can't Outrun
Ru: 23.10.2014
Eng: 21.10.2014
1 сезон 2 серия
Самый быстрый человек на Земле
Fastest Man Alive
Ru: 17.10.2014
Eng: 14.10.2014
1 сезон 1 серия
Город героев
Pilot
Ru: 10.10.2014
Eng: 07.10.2014

Флэш / The Flash / Сезон: 2 полный / Серии: 1-23 из 23 (Дэвид Наттер) [2015, фантастика, фэнтези, боевик, драма, приключения, WEB-DLRip] MVO LostFilm 1080р

Флэш / The Flash
Год выпуска: 2015
Страна: США
Жанр: фантастика, фэнтези, боевик, драма, приключения
Продолжительность: ~ 00:43:00
Перевод: Профессиональный (многоголосый, закадровый)(LostFilm)
Режиссер: Дэвид Наттер
В ролях: Грант Гастин, Кэндис Паттон, Даниэль Панабэйкер, Рик Коснетт, Карлос Валдес, Томас Кэвэна
Описание: Когда Барри Аллен был маленьким, больше всего на свете ему хотелось быть супергероем — тем, кто превосходит лимиты человеческого организма и использует во благо данную ему силу. Когда Барри было одиннадцать лет, он на собственном опыте узнал, что люди с необычными способностями действительно существуют: его мать была убита одним из таких людей. Повзрослев и став судмедэкспертом, Барри не отбросил мыслей о сверхлюдях и продолжал искать доказательства их существования, что не лучшим образом сказывалось на его репутации и общении с коллегами. Впрочем, однажды его усилия были вознаграждены…
Качество: WEB-DLRip
Формат: MKV
Video: MPEG4 Video (H264) 1920x1080 23.976fps [V: h264 high L4.0, yuv420p, 1920x1080 [default]]
Audio: Dolby AC3 48000Hz stereo 384kbps [A: ac3, 48000 Hz, stereo, 384 kb/s [default]]
Audio: Dolby AC3 48000Hz stereo 384kbps [A: ac3, 48000 Hz, stereo, 384 kb/s]

Информация по видеофайлу

General
Unique ID : 230024011854167944617854764582586087336 (0xAD0D03636BEB8A248AB1011204A4F7A8)
Complete name : H:\Downloads\The Flash 1,2,3,4,5 - SEZON - LostFilm.TV [1080p]\The Flash 2 - LostFilm.TV [1080p]\The.Flash.S02E01.1080p.rus.LostFilm.TV.mkv
Format : Matroska
Format version : Version 4
File size : 1.79 GiB
Duration : 42 min 34 s
Overall bit rate : 6 011 kb/s
Encoded date : UTC 2015-10-08 19:06:53
Writing application : mkvmerge v7.7.0 ('Six Voices') 64bit built on Feb 28 2015 23:39:33
Writing library : libebml v1.3.1 + libmatroska v1.4.2
Video
ID : 1
Format : AVC
Format/Info : Advanced Video Codec
Format profile : High@L4
Format settings : CABAC / 2 Ref Frames
Format settings, CABAC : Yes
Format settings, Reference fra : 2 frames
Codec ID : V_MPEG4/ISO/AVC
Duration : 42 min 34 s
Bit rate : 5 242 kb/s
Width : 1 920 pixels
Height : 1 080 pixels
Display aspect ratio : 16:9
Frame rate mode : Constant
Frame rate : 23.976 (24000/1001) FPS
Original frame rate : 23.976 (23976/1000) FPS
Color space : YUV
Chroma subsampling : 4:2:0
Bit depth : 8 bits
Scan type : Progressive
Bits/(Pixel*Frame) : 0.105
Stream size : 1.56 GiB (87%)
Writing library : x264 core 112 r1834 a51816a
Encoding settings : cabac=1 / ref=1 / deblock=1:0:0 / analyse=0x3:0x133 / me=umh / subme=7 / psy=1 / psy_rd=1.00:0.00 / mixed_ref=0 / me_range=16 / chroma_me=1 / trellis=1 / 8x8dct=1 / cqm=0 / deadzone=21,11 / fast_pskip=1 / chroma_qp_offset=-2 / threads=12 / sliced_threads=0 / nr=0 / decimate=1 / interlaced=0 / constrained_intra=0 / bframes=5 / b_pyramid=0 / b_adapt=1 / b_bias=0 / direct=3 / weightb=1 / open_gop=0 / weightp=2 / keyint=250 / keyint_min=25 / scenecut=40 / intra_refresh=0 / rc_lookahead=40 / rc=2pass / mbtree=1 / bitrate=5242 / ratetol=1.0 / qcomp=0.60 / qpmin=0 / qpmax=51 / qpstep=4 / cplxblur=20.0 / qblur=0.5 / ip_ratio=1.40 / aq=1:1.00
Default : Yes
Forced : No
Audio #1
ID : 2
Format : AC-3
Format/Info : Audio Coding 3
Commercial name : Dolby Digital
Codec ID : A_AC3
Duration : 42 min 34 s
Bit rate mode : Constant
Bit rate : 384 kb/s
Channel(s) : 2 channels
Channel layout : L R
Sampling rate : 48.0 kHz
Frame rate : 31.250 FPS (1536 SPF)
Bit depth : 16 bits
Compression mode : Lossy
Stream size : 117 MiB (6%)
Service kind : Complete Main
Default : Yes
Forced : No
Audio #2
ID : 3
Format : AC-3
Format/Info : Audio Coding 3
Commercial name : Dolby Digital
Codec ID : A_AC3
Duration : 42 min 34 s
Bit rate mode : Constant
Bit rate : 384 kb/s
Channel(s) : 2 channels
Channel layout : L R
Sampling rate : 48.0 kHz
Frame rate : 31.250 FPS (1536 SPF)
Bit depth : 16 bits
Compression mode : Lossy
Stream size : 117 MiB (6%)
Service kind : Complete Main
Default : No
Forced : No

Скриншоты

2 сезон спипок серие

Статус: Завершен
Год: 2015
Количество вышедших серий: 23 (из 23)
2 сезон 23 серия
Гонка всей его жизни
The Race of His Life
Ru: 26.05.2016
Eng: 24.05.2016
2 сезон 22 серия
Неуязвимый
Invincible
Ru: 19.05.2016
Eng: 17.05.2016
2 сезон 21 серия
Сбежавший динозавр
The Runaway Dinosaur
Ru: 13.05.2016
Eng: 10.05.2016
2 сезон 20 серия
Раскол
Rupture
Ru: 05.05.2016
Eng: 03.05.2016
2 сезон 19 серия
Как прежде
Back to Normal
Ru: 28.04.2016
Eng: 26.04.2016
2 сезон 18 серия
Против Зума
Versus Zoom
Ru: 21.04.2016
Eng: 19.04.2016
2 сезон 17 серия
Флэшбэк
Flash Back
Ru: 31.03.2016
Eng: 29.03.2016
2 сезон 16 серия
Траектория
Trajectory
Ru: 24.03.2016
Eng: 22.03.2016
2 сезон 15 серия
Король-акула
King Shark
Ru: 26.02.2016
Eng: 23.02.2016
2 сезон 14 серия
Побег с Земли-2
Escape from Earth-2
Ru: 18.02.2016
Eng: 16.02.2016
2 сезон 13 серия
Добро пожаловать на Землю-2
Welcome to Earth-2
Ru: 11.02.2016
Eng: 09.02.2016
2 сезон 12 серия
Скорость
Fast Lane
Ru: 04.02.2016
Eng: 02.02.2016
2 сезон 11 серия
Возвращение обратного Флэша
The Reverse-Flash Returns
Ru: 28.01.2016
Eng: 26.01.2016
2 сезон 10 серия
Потенциальная энергия
Potential Energy
Ru: 21.01.2016
Eng: 19.01.2016
2 сезон 9 серия
Бежать, чтобы стоять на месте
Running to Stand Still
Ru: 10.12.2015
Eng: 08.12.2015
2 сезон 8 серия
Легенды сегодняшнего дня
Legends of Today 1
Ru: 26.12.2015
Eng: 01.12.2015
2 сезон 7 серия
Воитель джунглей
Gorilla Warfare
Ru: 19.11.2015
Eng: 17.11.2015
2 сезон 6 серия
Выход Зума
Enter Zoom
Ru: 12.11.2015
Eng: 10.11.2015
2 сезон 5 серия
Тьма и свет
The Darkness and the Light
Ru: 05.11.2015
Eng: 03.11.2015
2 сезон 4 серия
Ярость Огненного Шторма
The Fury of Firestorm
Ru: 29.10.2015
Eng: 27.10.2015
2 сезон 3 серия
Криминальная семейка
Family of Rogues
Ru: 22.10.2015
Eng: 20.10.2015
2 сезон 2 серия
Флэш двух миров
Flash of Two Worlds
Ru: 16.10.2015
Eng: 13.10.2015
2 сезон 1 серия
Тот, кто спас Централ-Сити
The Man Who Saved Central City
Ru: 08.10.2015
Eng: 06.10.2015

Флэш / The Flash / Сезон: 3 полный / Серии: 1-23 из 23 (Дэвид Наттер) [2016, фантастика, фэнтези, боевик, драма, приключения, WEB-DLRip] MVO LostFilm 1080р

Флэш / The Flash
Год выпуска: 2016
Страна: США
Жанр: фантастика, фэнтези, боевик, драма, приключения
Продолжительность: ~ 00:43:00
Перевод: Профессиональный (многоголосый, закадровый)(LostFilm)
Режиссер: Дэвид Наттер
В ролях: Грант Гастин, Кэндис Паттон, Даниэль Панабэйкер, Рик Коснетт, Карлос Валдес, Томас Кэвэна
Описание: Когда Барри Аллен был маленьким, больше всего на свете ему хотелось быть супергероем — тем, кто превосходит лимиты человеческого организма и использует во благо данную ему силу. Когда Барри было одиннадцать лет, он на собственном опыте узнал, что люди с необычными способностями действительно существуют: его мать была убита одним из таких людей. Повзрослев и став судмедэкспертом, Барри не отбросил мыслей о сверхлюдях и продолжал искать доказательства их существования, что не лучшим образом сказывалось на его репутации и общении с коллегами. Впрочем, однажды его усилия были вознаграждены…
Качество: WEB-DLRip
Формат: MKV
Video: MPEG4 Video (H264) 1920x1080 (641:360) 23.976fps [V: h264 high L4.1, yuv420p, 1920x1080 [default]]
Audio: Dolby AC3 48000Hz stereo 384kbps [A: ac3, 48000 Hz, stereo, 384 kb/s [default]]
Audio: Dolby AC3 48000Hz stereo 384kbps [A: ac3, 48000 Hz, stereo, 384 kb/s]

Информация по видеофайлу

General
Unique ID : 248175736958179733684262341340665630680 (0xBAB4E8882BEA2E68A7F74082A6964FD8)
Complete name : H:\Downloads\The Flash 1,2,3,4,5 - SEZON - LostFilm.TV [1080p]\The Flash 3 - LostFilm.TV [1080p]\The.Flash.S03E01.1080p.rus.LostFilm.TV.mkv
Format : Matroska
Format version : Version 4
File size : 1.79 GiB
Duration : 42 min 32 s
Overall bit rate : 6 010 kb/s
Encoded date : UTC 2016-10-06 15:06:13
Writing application : mkvmerge v8.8.0 ('Wind at my back') 64bit
Writing library : libebml v1.3.3 + libmatroska v1.4.4
Video
ID : 1
Format : AVC
Format/Info : Advanced Video Codec
Format profile : High@L4.1
Format settings : CABAC / 4 Ref Frames
Format settings, CABAC : Yes
Format settings, Reference fra : 4 frames
Codec ID : V_MPEG4/ISO/AVC
Duration : 42 min 32 s
Bit rate : 5 242 kb/s
Width : 1 920 pixels
Height : 1 080 pixels
Display aspect ratio : 16:9
Frame rate mode : Constant
Frame rate : 23.976 (24000/1001) FPS
Original frame rate : 23.976 (23976/1000) FPS
Color space : YUV
Chroma subsampling : 4:2:0
Bit depth : 8 bits
Scan type : Progressive
Bits/(Pixel*Frame) : 0.105
Stream size : 1.56 GiB (87%)
Writing library : x264 core 112 r1834 a51816a
Encoding settings : cabac=1 / ref=4 / deblock=1:-3:-2 / analyse=0x3:0x113 / me=hex / subme=7 / psy=1 / psy_rd=1.00:0.00 / mixed_ref=1 / me_range=16 / chroma_me=1 / trellis=1 / 8x8dct=1 / cqm=0 / deadzone=21,11 / fast_pskip=1 / chroma_qp_offset=-2 / threads=12 / sliced_threads=0 / nr=0 / decimate=1 / interlaced=0 / constrained_intra=0 / bframes=5 / b_pyramid=2 / b_adapt=1 / b_bias=0 / direct=1 / weightb=1 / open_gop=0 / weightp=2 / keyint=250 / keyint_min=25 / scenecut=40 / intra_refresh=0 / rc_lookahead=40 / rc=2pass / mbtree=1 / bitrate=5242 / ratetol=1.0 / qcomp=0.60 / qpmin=0 / qpmax=51 / qpstep=4 / cplxblur=20.0 / qblur=0.5 / vbv_maxrate=10000 / vbv_bufsize=256000 / ip_ratio=1.40 / aq=1:1.00 / nal_hrd=none
Default : Yes
Forced : No
Audio #1
ID : 2
Format : AC-3
Format/Info : Audio Coding 3
Commercial name : Dolby Digital
Codec ID : A_AC3
Duration : 42 min 32 s
Bit rate mode : Constant
Bit rate : 384 kb/s
Channel(s) : 2 channels
Channel layout : L R
Sampling rate : 48.0 kHz
Frame rate : 31.250 FPS (1536 SPF)
Bit depth : 16 bits
Compression mode : Lossy
Stream size : 117 MiB (6%)
Service kind : Complete Main
Default : Yes
Forced : No
Audio #2
ID : 3
Format : AC-3
Format/Info : Audio Coding 3
Commercial name : Dolby Digital
Codec ID : A_AC3
Duration : 42 min 32 s
Bit rate mode : Constant
Bit rate : 384 kb/s
Channel(s) : 2 channels
Channel layout : L R
Sampling rate : 48.0 kHz
Frame rate : 31.250 FPS (1536 SPF)
Bit depth : 16 bits
Compression mode : Lossy
Stream size : 117 MiB (6%)
Service kind : Complete Main
Default : No
Forced : No

Скриншоты

3 сезон спипок серие

Статус: Завершен
Год: 2016
Количество вышедших серий: 23 (из 23)
3 сезон 23 серия
Финишная черта
Finish Line
Ru: 25.05.2017
Eng: 23.05.2017
3 сезон 22 серия
Инфантино-стрит
Infantino Street
Ru: 18.05.2017
Eng: 16.05.2017
3 сезон 21 серия
Причина и следствие
Cause and Effect
Ru: 11.05.2017
Eng: 09.05.2017
3 сезон 20 серия
Я знаю, кто ты
I Know Who You Are
Ru: 04.05.2017
Eng: 02.05.2017
3 сезон 19 серия
Бывший и будущий Флэш
The Once and Future Flash
Ru: 27.04.2017
Eng: 25.04.2017
3 сезон 18 серия
Абракадабра
Abra Kadabra
Ru: 30.03.2017
Eng: 28.03.2017
3 сезон 17 серия
Дуэт
Duet
Ru: 23.03.2017
Eng: 21.03.2017
3 сезон 16 серия
В силу скорости
Into the Speed Force
Ru: 16.03.2017
Eng: 14.03.2017
3 сезон 15 серия
Ярость Савитара
The Wrath of Savitar
Ru: 09.03.2017
Eng: 07.03.2017
3 сезон 14 серия
Нападение на Централ-Сити
Attack on Central City
Ru: 02.03.2017
Eng: 28.02.2017
3 сезон 13 серия
Нападение на Горилла-Сити
Attack on Gorilla City
Ru: 23.02.2017
Eng: 21.02.2017
3 сезон 12 серия
Неприкасаемый
Untouchable
Ru: 09.02.2017
Eng: 07.02.2017
3 сезон 11 серия
Живым или мёртвым
Dead or Alive
Ru: 02.02.2017
Eng: 31.01.2017
3 сезон 10 серия
Одолжить проблем у будущего
Borrowing Problems from the Future
Ru: 27.01.2017
Eng: 24.01.2017
3 сезон 9 серия
Настоящее
The Present
Ru: 08.12.2016
Eng: 06.12.2016
3 сезон 8 серия
Вторжение!
Invasion!
Ru: 01.12.2016
Eng: 29.11.2016
3 сезон 7 серия
Убийца Мороз
Killer Frost
Ru: 24.11.2016
Eng: 22.11.2016
3 сезон 6 серия
Мрак
Shade
Ru: 17.11.2016
Eng: 15.11.2016
3 сезон 5 серия
Монстр
Monster
Ru: 03.11.2016
Eng: 01.11.2016
3 сезон 4 серия
Новые злодеи
The New Rogues
Ru: 27.10.2016
Eng: 25.10.2016
3 сезон 3 серия
Маджента
Magenta
Ru: 20.10.2016
Eng: 18.10.2016
3 сезон 2 серия
Парадокс
Paradox
Ru: 13.10.2016
Eng: 11.10.2016
3 сезон 1 серия
Флэшпойнт
Flashpoint
Ru: 06.10.2016
Eng: 04.10.2016

Флэш / The Flash / Сезон: 4 полный / Серии: 1-23 из 23 (Дэвид Наттер) [2016, фантастика, фэнтези, боевик, драма, приключения, WEB-DLRip] MVO LostFilm 1080р

Флэш / The Flash
Год выпуска: 2017
Страна: США
Жанр: фантастика, фэнтези, боевик, драма, приключения
Продолжительность: ~ 00:43:00
Перевод: Профессиональный (многоголосый, закадровый)(LostFilm)
Режиссер: Дэвид Наттер
В ролях: Грант Гастин, Кэндис Паттон, Даниэль Панабэйкер, Рик Коснетт, Карлос Валдес, Томас Кэвэна
Описание: Когда Барри Аллен был маленьким, больше всего на свете ему хотелось быть супергероем — тем, кто превосходит лимиты человеческого организма и использует во благо данную ему силу. Когда Барри было одиннадцать лет, он на собственном опыте узнал, что люди с необычными способностями действительно существуют: его мать была убита одним из таких людей. Повзрослев и став судмедэкспертом, Барри не отбросил мыслей о сверхлюдях и продолжал искать доказательства их существования, что не лучшим образом сказывалось на его репутации и общении с коллегами. Впрочем, однажды его усилия были вознаграждены…
Качество: WEB-DLRip
Формат: MKV
Video: MPEG4 Video (H264) 1920x1080 23.976fps [V: h264 high L4.1, yuv420p, 1920x1080 [default]]
Audio: Dolby AC3 48000Hz stereo 384kbps [A: ac3, 48000 Hz, stereo, 384 kb/s [default]]
Audio: Dolby AC3 48000Hz stereo 384kbps [A: ac3, 48000 Hz, stereo, 384 kb/s]

Информация по видеофайлу

General
Unique ID : 206519274030790378681609617290692878134 (0x9B5E2A5751FBC426A9A20715B3F35F36)
Complete name : H:\Downloads\The Flash 1,2,3,4,5 - SEZON - LostFilm.TV [1080p]\The Flash 4 - LostFilm.TV [1080p]\The.Flash.S04E01.1080p.rus.LostFilm.TV.mkv
Format : Matroska
Format version : Version 4
File size : 1.78 GiB
Duration : 42 min 30 s
Overall bit rate : 6 011 kb/s
Encoded date : UTC 2017-10-12 18:03:49
Writing application : mkvmerge v9.5.0 ('Quiet Fire') 64bit
Writing library : libebml v1.3.4 + libmatroska v1.4.5
Video
ID : 1
Format : AVC
Format/Info : Advanced Video Codec
Format profile : High@L4.1
Format settings : CABAC / 4 Ref Frames
Format settings, CABAC : Yes
Format settings, Reference fra : 4 frames
Codec ID : V_MPEG4/ISO/AVC
Duration : 42 min 30 s
Bit rate : 5 242 kb/s
Width : 1 920 pixels
Height : 1 080 pixels
Display aspect ratio : 16:9
Frame rate mode : Constant
Frame rate : 23.976 (24000/1001) FPS
Original frame rate : 23.976 (23976/1000) FPS
Color space : YUV
Chroma subsampling : 4:2:0
Bit depth : 8 bits
Scan type : Progressive
Bits/(Pixel*Frame) : 0.105
Stream size : 1.56 GiB (87%)
Writing library : x264 core 112 r1834 a51816a
Encoding settings : cabac=1 / ref=4 / deblock=1:-3:-2 / analyse=0x3:0x113 / me=hex / subme=7 / psy=1 / psy_rd=1.00:0.00 / mixed_ref=1 / me_range=16 / chroma_me=1 / trellis=1 / 8x8dct=1 / cqm=0 / deadzone=21,11 / fast_pskip=1 / chroma_qp_offset=-2 / threads=6 / sliced_threads=0 / nr=0 / decimate=1 / interlaced=0 / constrained_intra=0 / bframes=5 / b_pyramid=2 / b_adapt=1 / b_bias=0 / direct=1 / weightb=1 / open_gop=0 / weightp=2 / keyint=250 / keyint_min=25 / scenecut=40 / intra_refresh=0 / rc_lookahead=40 / rc=2pass / mbtree=1 / bitrate=5242 / ratetol=1.0 / qcomp=0.60 / qpmin=0 / qpmax=51 / qpstep=4 / cplxblur=20.0 / qblur=0.5 / vbv_maxrate=10000 / vbv_bufsize=256000 / ip_ratio=1.40 / aq=1:1.00 / nal_hrd=none
Default : Yes
Forced : No
Audio #1
ID : 2
Format : AC-3
Format/Info : Audio Coding 3
Commercial name : Dolby Digital
Codec ID : A_AC3
Duration : 42 min 29 s
Bit rate mode : Constant
Bit rate : 384 kb/s
Channel(s) : 2 channels
Channel layout : L R
Sampling rate : 48.0 kHz
Frame rate : 31.250 FPS (1536 SPF)
Bit depth : 16 bits
Compression mode : Lossy
Stream size : 117 MiB (6%)
Service kind : Complete Main
Default : Yes
Forced : No
Audio #2
ID : 3
Format : AC-3
Format/Info : Audio Coding 3
Commercial name : Dolby Digital
Codec ID : A_AC3
Duration : 42 min 30 s
Bit rate mode : Constant
Bit rate : 384 kb/s
Channel(s) : 2 channels
Channel layout : L R
Sampling rate : 48.0 kHz
Frame rate : 31.250 FPS (1536 SPF)
Bit depth : 16 bits
Compression mode : Lossy
Stream size : 117 MiB (6%)
Service kind : Complete Main
Default : No
Forced : No

Скриншоты

4 сезон спипок серие

Статус: Завершен
Год: 2017
Количество вышедших серий: 23 (из 23)
4 сезон 23 серия
Мы - Флэш
We Are The Flash
Ru: 24.05.2018
Eng: 22.05.2018
4 сезон 22 серия
Да будет свет
Think Fast
Ru: 17.05.2018
Eng: 15.05.2018
4 сезон 21 серия
Харри и Харрисоны
Harry and the Harrisons
Ru: 10.05.2018
Eng: 08.05.2018
4 сезон 20 серия
Следовательно она существует
Therefore She Is
Ru: 03.05.2018
Eng: 01.05.2018
4 сезон 19 серия
Безумная ярость
Fury Rogue
Ru: 26.04.2018
Eng: 24.04.2018
4 сезон 18 серия
Потеря себя
Lose Yourself
Ru: 19.04.2018
Eng: 17.04.2018
4 сезон 17 серия
Нулевой настрой
Null and Annoyed
Ru: 12.04.2018
Eng: 10.04.2018
4 сезон 16 серия
Беги, Айрис, беги
Run, Iris, Run
Ru: 15.03.2018
Eng: 13.03.2018
4 сезон 15 серия
В одно мгновение
Enter Flashtime
Ru: 08.03.2018
Eng: 06.03.2018
4 сезон 14 серия
Объект 9
Subject 9
Ru: 01.03.2018
Eng: 27.02.2018
4 сезон 13 серия
Без маски
True Colors
Ru: 08.02.2018
Eng: 06.02.2018
4 сезон 12 серия
Дорогая, я уменьшил команду Флэша
Honey, I Shrunk Team Flash
Ru: 01.02.2018
Eng: 30.01.2018
4 сезон 11 серия
Удлиняющийся рыцарь: Возрождение легенды
The Elongated Knight Rises
Ru: 25.01.2018
Eng: 23.01.2018
4 сезон 10 серия
Суд над Флэшем
The Trial of The Flash
Ru: 18.01.2018
Eng: 16.01.2018
4 сезон 9 серия
Не беги
Don't Run
Ru: 07.12.2017
Eng: 05.12.2017
4 сезон 8 серия
Кризис на Земле-Х. Часть 3
Crisis on Earth-X
Ru: 30.11.2017
Eng: 28.11.2017
4 сезон 7 серия
Следовательно я существую
Therefore I Am
Ru: 23.11.2017
Eng: 21.11.2017
4 сезон 6 серия
Когда Харри встретил Харри
When Harry Met Harry…
Ru: 16.11.2017
Eng: 14.11.2017
4 сезон 5 серия
Девичник
Girls Night Out
Ru: 09.11.2017
Eng: 07.11.2017
4 сезон 4 серия
Долгое путешествие в ночь
Elongated Journey Into Night
Ru: 02.11.2017
Eng: 31.10.2017
4 сезон 3 серия
Госпожа Удача
Luck Be a Lady
Ru: 26.10.2017
Eng: 24.10.2017
4 сезон 2 серия
Неясные сигналы
Mixed Signals
Ru: 19.10.2017
Eng: 17.10.2017
4 сезон 1 серия
Перерождение Флэша
The Flash Reborn
Ru: 12.10.2017
Eng: 10.10.2017

Флэш / The Flash / Сезон: 5 Полный / Серии: 1-22 из 22 (Дермотт Даунс, Глен Винтер, Ральф Хемекер) [2018 г., Фантастика, боевик, драма, приключения, WEB-DLRip] M

Флэш / The Flash
Год выпуска: 2018
Премьера (мир): 9 октября 2018
Страна: США
Телеканал: The CW
Жанр: Фантастика, боевик, драма, приключения
Продолжительность: ~ 00:45:00
Перевод: Профессиональный (многоголосый, закадровый) [LostFilm]
Режиссер: Дермотт Даунс / Dermott Downs, Глен Винтер / Glen Winter, Ральф Хемекер / Ralph Hemecker и др.
Сценарий: Грег Берланти / Greg Berlanti, Джефф Джонс / Geoff Johns, Стерлинг Гейтс / Sterling Gates и др.
В ролях: Грант Гастин / Grant Gustin, Кэндис Патон / Candice Patton, Даниэль Панабэйкер / Danielle Panabaker, Карлос Валдес / Carlos Valdes, Джесси Л. Мартин / Jesse L. Martin, Кейнан Лонсдейл / Keiynan Lonsdale, Даниэль Николет / Danielle Nicolet, Вайолетт Бин / Violett Beane и др.
Описание: Когда Барри Аллен был маленьким, больше всего на свете ему хотелось быть супергероем — тем, кто превосходит лимиты человеческого организма и использует во благо данную ему силу. Когда Барри было одиннадцать лет, он на собственном опыте узнал, что люди с необычными способностями действительно существуют: его мать была убита одним из таких людей. Повзрослев и став судмедэкспертом, Барри не отбросил мыслей о сверхлюдях и продолжал искать доказательства их существования, что не лучшим образом сказывалось на его репутации и общении с коллегами. Впрочем, однажды его усилия были вознаграждены…
Качество: WEB-DLRip
Формат: MKV
Video: MPEG4 Video (H264) 1912x1072 23.976fps [V: h264 high L4.1, yuv420p, 1912x1072 [default]]
Audio: Dolby AC3 48000Hz stereo 384kbps [A: ac3, 48000 Hz, stereo, 384 kb/s [default]]
Audio: Dolby AC3 48000Hz stereo 384kbps [A: ac3, 48000 Hz, stereo, 384 kb/s]

Информация по видеофайлу

General
Unique ID : 191858935422147194040700865510586268377 (0x9056AFD78CB77ECAB3A7055A71B13AD9)
Complete name : H:\Downloads\The Flash 1,2,3,4,5 - SEZON - LostFilm.TV [1080p]\The Flash 5 - LostFilm.TV [1080p]\The.Flash.S05E01.1080p.rus.LostFilm.TV.mkv
Format : Matroska
Format version : Version 4
File size : 2.25 GiB
Duration : 42 min 28 s
Overall bit rate : 7 571 kb/s
Encoded date : UTC 2018-10-11 17:46:39
Writing application : mkvmerge v9.5.0 ('Quiet Fire') 64bit
Writing library : libebml v1.3.4 + libmatroska v1.4.5
Video
ID : 1
Format : AVC
Format/Info : Advanced Video Codec
Format profile : High@L4.1
Format settings : CABAC / 4 Ref Frames
Format settings, CABAC : Yes
Format settings, Reference fra : 4 frames
Codec ID : V_MPEG4/ISO/AVC
Duration : 42 min 28 s
Bit rate : 6 800 kb/s
Width : 1 912 pixels
Height : 1 072 pixels
Display aspect ratio : 16:9
Frame rate mode : Constant
Frame rate : 23.976 (24000/1001) FPS
Original frame rate : 23.976 (23976/1000) FPS
Color space : YUV
Chroma subsampling : 4:2:0
Bit depth : 8 bits
Scan type : Progressive
Bits/(Pixel*Frame) : 0.138
Stream size : 2.02 GiB (90%)
Writing library : x264 core 112 r1834 a51816a
Encoding settings : cabac=1 / ref=4 / deblock=1:-3:-2 / analyse=0x3:0x113 / me=hex / subme=7 / psy=1 / psy_rd=1.00:0.00 / mixed_ref=1 / me_range=16 / chroma_me=1 / trellis=1 / 8x8dct=1 / cqm=0 / deadzone=21,11 / fast_pskip=1 / chroma_qp_offset=-2 / threads=12 / sliced_threads=0 / nr=0 / decimate=1 / interlaced=0 / constrained_intra=0 / bframes=5 / b_pyramid=2 / b_adapt=1 / b_bias=0 / direct=1 / weightb=1 / open_gop=0 / weightp=2 / keyint=250 / keyint_min=25 / scenecut=40 / intra_refresh=0 / rc_lookahead=40 / rc=2pass / mbtree=1 / bitrate=6800 / ratetol=1.0 / qcomp=0.60 / qpmin=0 / qpmax=51 / qpstep=4 / cplxblur=20.0 / qblur=0.5 / vbv_maxrate=10000 / vbv_bufsize=256000 / ip_ratio=1.40 / aq=1:1.00 / nal_hrd=none
Default : Yes
Forced : No
Audio #1
ID : 2
Format : AC-3
Format/Info : Audio Coding 3
Commercial name : Dolby Digital
Codec ID : A_AC3
Duration : 42 min 27 s
Bit rate mode : Constant
Bit rate : 384 kb/s
Channel(s) : 2 channels
Channel layout : L R
Sampling rate : 48.0 kHz
Frame rate : 31.250 FPS (1536 SPF)
Bit depth : 16 bits
Compression mode : Lossy
Stream size : 117 MiB (5%)
Service kind : Complete Main
Default : Yes
Forced : No
Audio #2
ID : 3
Format : AC-3
Format/Info : Audio Coding 3
Commercial name : Dolby Digital
Codec ID : A_AC3
Duration : 42 min 28 s
Bit rate mode : Constant
Bit rate : 384 kb/s
Channel(s) : 2 channels
Channel layout : L R
Sampling rate : 48.0 kHz
Frame rate : 31.250 FPS (1536 SPF)
Bit depth : 16 bits
Compression mode : Lossy
Stream size : 117 MiB (5%)
Service kind : Complete Main
Default : No
Forced : No

Скриншоты

5 сезон спипок серие

Статус: Завершен
Год: 2018
Количество вышедших серий: 22 (из 22)
5 сезон 22 серия
Наследие
Legacy
Ru: 16.05.2019
Eng: 14.05.2019 451 8.8
5 сезон 21 серия
Девушка с красной молнией
The Girl with the Red Lightning
Ru: 09.05.2019
Eng: 07.05.2019 196 8.9
5 сезон 20 серия
Среди Негодяев
Gone Rogue
Ru: 02.05.2019
Eng: 30.04.2019 134 8.7
5 сезон 19 серия
Стая Сноу
Snow Pack
Ru: 25.04.2019
Eng: 23.04.2019 216 8.5
5 сезон 18 серия
Бог скорости
Godspeed
Ru: 18.04.2019
Eng: 16.04.2019 228 8.9
5 сезон 17 серия
Отложенный взрыв
Time Bomb
Ru: 21.03.2019
Eng: 19.03.2019 321 8.9
5 сезон 16 серия
Неудача всегда сирота
Failure Is an Orphan
Ru: 14.03.2019
Eng: 12.03.2019 164 8.8
5 сезон 15 серия
Король Акула против Гориллы Гродда
King Shark vs. Gorilla Grodd
Ru: 07.03.2019
Eng: 05.03.2019 233 8.7
5 сезон 14 серия
Эффект Эксцесса
Cause and XS
Ru: 14.02.2019
Eng: 12.02.2019 246 8.8
5 сезон 13 серия
Златоликий
Goldfaced
Ru: 07.02.2019
Eng: 05.02.2019 205 8.9
5 сезон 12 серия
Сувенир
Memorabilia
Ru: 31.01.2019
Eng: 29.01.2019 210 8.8
5 сезон 11 серия
Во власти гнева
Seeing Red
Ru: 24.01.2019
Eng: 22.01.2019 257 8.5
5 сезон 10 серия
Мета-Форсаж
The Flash & the Furious
Ru: 17.01.2019
Eng: 15.01.2019 220 8.9
5 сезон 9 серия
Иные миры. Часть 1
Elseworlds 1
Ru: 11.12.2018
Eng: 09.12.2018 447 9.3
5 сезон 8 серия
Что случилось - лишь пролог
What's Past Is Prologue
Ru: 06.12.2018
Eng: 04.12.2018 245 9.2
5 сезон 7 серия
Придите, благодарные
O Come, All Ye Thankful
Ru: 29.11.2018
Eng: 27.11.2018 157 8.9
5 сезон 6 серия
Явление Сосульки
The Icicle Cometh
Ru: 22.11.2018
Eng: 20.11.2018 175 8.9
5 сезон 5 серия
Не игрушка
All Doll'd Up
Ru: 15.11.2018
Eng: 13.11.2018 190 8.7
5 сезон 4 серия
Экстренные сообщения
News Flash
Ru: 01.11.2018
Eng: 30.10.2018 256 8.7
5 сезон 3 серия
Гибель Вайба
The Death of Vibe
Ru: 25.10.2018
Eng: 23.10.2018 177 8.9
5 сезон 2 серия
В блоке
Blocked
Ru: 18.10.2018
Eng: 16.10.2018 164 8.7
5 сезон 1 серия
Нора
Nora
Ru: 11.10.2018
Eng: 09.10.2018 363 8.5

Флэш / The Flash / Сезон 6 полный / Серии 1-19 из 19 (Дермотт Даунс, Ральф Хемекер, Стефан Плещински) [2019, Боевик, Приключенческий, Драма, Комиксы, WEB-D

Флэш / The Flash
Премьера: 07 октября 2014
Год выпуска: 2019
Канал, Страна: The CW (США)
Рейтинг IMDb: 7.8
Жанр: Фантастика, Фэнтези, Боевик, Драма, Приключения, Комиксы
Тип: По комиксам DC Comics, Супергерои
Официальный сайт: http://www.cwtv.com/shows/the-flash/
Продолжительность: ~ 00:44:00
Перевод: Профессиональный (многоголосый, закадровый)(LostFilm)
Режиссер: Дермотт Даунс, Ральф Хемекер, Стефан Плещински
В ролях: Грант Гастин, Кэндис Паттон, Даниэль Панабэйкер, Карлос Валдес, Томас Кавана, Джесси Л. Мартин, Даниэль Николет, Кейнан Лонсдейл, Патрик Сабонгуй, Хартли Сойер
Описание: Когда Барри Аллен был маленьким, больше всего на свете ему хотелось быть супергероем - тем, кто превосходит лимиты человеческого организма и использует во благо данную ему силу. Когда Барри было одиннадцать лет, он на собственном опыте узнал, что люди с необычными способностями действительно существуют: его мать была убита одним из таких людей. Повзрослев и став судмедэкспертом, Барри не отбросил мыслей о сверхлюдях и продолжал искать доказательства их существования, что не лучшим образом сказывалось на его репутации и общении с коллегами. Впрочем, однажды его усилия были вознаграждены...
Качество: WEB-DLRip
Формат: MKV
Видео кодек: XviD
Аудио кодек: MP3
Video: MPEG4 Video (H264) 1920x1080 23.976fps [V: h264 high L4.1, yuv420p, 1920x1080 [default]]
Audio: Dolby AC3 48000Hz stereo 384kbps [A: ac3, 48000 Hz, stereo, 384 kb/s [default]]
Audio: Dolby AC3 48000Hz stereo 384kbps [A: ac3, 48000 Hz, stereo, 384 kb/s]

6 сезон спипок серие

Статус: Идет
Год: 2019
Количество вышедших серий: 19 (из 19)
6 сезон 9 серия
Кризис на Бесконечных Землях. Часть 3
Crisis on Infinite Earths: Part Three
Ru: 12.12.2019
Eng: 10.12.2019
6 сезон 8 серия
Последнее Искушение Барри Аллена, часть 2
The Last Temptation of Barry Allen, Pt. 2
Ru: 05.12.2019
Eng: 03.12.2019
6 сезон 7 серия
Последнее Искушение Барри Аллена, часть 1
The Last Temptation of Barry Allen, Pt. 1
Ru: 28.11.2019
Eng: 26.11.2019
6 сезон 6 серия
Лицензия на удлинение
License to Elongate
Ru: 21.11.2019
Eng: 19.11.2019
6 сезон 5 серия
Поцелуй сквозь брешь
Kiss Kiss Breach Breach
Ru: 07.11.2019
Eng: 05.11.2019
6 сезон 4 серия
Прольётся кровь
There Will Be Blood
Ru: 31.10.2019
Eng: 29.10.2019
6 сезон 3 серия
Бегущий мертвец
Dead Man Running
Ru: 24.10.2019
Eng: 22.10.2019
6 сезон 2 серия
Молнии вспышка
A Flash of the Lightning
Ru: 17.10.2019
Eng: 15.10.2019
6 сезон 1 серия
В бездну
Into the Void
Ru: 10.10.2019
Eng: 08.10.2019

Информация по видеофайлу

General
Unique ID : 201273129920645357062415972628670146583 (0x976BCB7774308C879746733584836817)
Complete name : H:\Downloads\The Flash 6 - SEZON - LostFilm.TV [1080p]\The.Flash.S06E01.1080p.rus.LostFilm.TV.mkv
Format : Matroska
Format version : Version 4
File size : 2.25 GiB
Duration : 42 min 29 s
Overall bit rate : 7 567 kb/s
Encoded date : UTC 2019-10-10 19:14:27
Writing application : mkvmerge v9.5.0 ('Quiet Fire') 64bit
Writing library : libebml v1.3.4 + libmatroska v1.4.5
Video
ID : 1
Format : AVC
Format/Info : Advanced Video Codec
Format profile : High@L4.1
Format settings : CABAC / 4 Ref Frames
Format settings, CABAC : Yes
Format settings, Reference fra : 4 frames
Codec ID : V_MPEG4/ISO/AVC
Duration : 42 min 29 s
Bit rate : 6 800 kb/s
Width : 1 920 pixels
Height : 1 080 pixels
Display aspect ratio : 16:9
Frame rate mode : Constant
Frame rate : 23.976 (24000/1001) FPS
Original frame rate : 23.976 (23976/1000) FPS
Color space : YUV
Chroma subsampling : 4:2:0
Bit depth : 8 bits
Scan type : Progressive
Bits/(Pixel*Frame) : 0.137
Stream size : 2.02 GiB (90%)
Writing library : x264 core 112 r1834 a51816a
Encoding settings : cabac=1 / ref=4 / deblock=1:-3:-2 / analyse=0x3:0x113 / me=hex / subme=7 / psy=1 / psy_rd=1.00:0.00 / mixed_ref=1 / me_range=16 / chroma_me=1 / trellis=1 / 8x8dct=1 / cqm=0 / deadzone=21,11 / fast_pskip=1 / chroma_qp_offset=-2 / threads=12 / sliced_threads=0 / nr=0 / decimate=1 / interlaced=0 / constrained_intra=0 / bframes=5 / b_pyramid=2 / b_adapt=1 / b_bias=0 / direct=1 / weightb=1 / open_gop=0 / weightp=2 / keyint=250 / keyint_min=25 / scenecut=40 / intra_refresh=0 / rc_lookahead=40 / rc=2pass / mbtree=1 / bitrate=6800 / ratetol=1.0 / qcomp=0.60 / qpmin=0 / qpmax=51 / qpstep=4 / cplxblur=20.0 / qblur=0.5 / vbv_maxrate=10000 / vbv_bufsize=256000 / ip_ratio=1.40 / aq=1:1.00 / nal_hrd=none
Default : Yes
Forced : No
Audio #1
ID : 2
Format : AC-3
Format/Info : Audio Coding 3
Commercial name : Dolby Digital
Codec ID : A_AC3
Duration : 42 min 28 s
Bit rate mode : Constant
Bit rate : 384 kb/s
Channel(s) : 2 channels
Channel layout : L R
Sampling rate : 48.0 kHz
Frame rate : 31.250 FPS (1536 SPF)
Bit depth : 16 bits
Compression mode : Lossy
Stream size : 117 MiB (5%)
Service kind : Complete Main
Default : Yes
Forced : No
Audio #2
ID : 3
Format : AC-3
Format/Info : Audio Coding 3
Commercial name : Dolby Digital
Codec ID : A_AC3
Duration : 42 min 29 s
Bit rate mode : Constant
Bit rate : 384 kb/s
Channel(s) : 2 channels
Channel layout : L R
Sampling rate : 48.0 kHz
Frame rate : 31.250 FPS (1536 SPF)
Bit depth : 16 bits
Compression mode : Lossy
Stream size : 117 MiB (5%)
Service kind : Complete Main
Default : No
Forced : No

Скриншоты

Показать сообщения:    

Текущее время: 29-Сен 12:55

Часовой пояс: UTC - 5



Вы не можете начинать темы
Вы не можете отвечать на сообщения
Вы не можете редактировать свои сообщения
Вы не можете удалять свои сообщения
Вы не можете голосовать в опросах
Вы не можете прикреплять файлы к сообщениям
Вы не можете скачивать файлы