Регистрация ·
Имя: Пароль:  
· Забыли пароль? · Вопросы от гостей
Kliplar To'plami
O'zbek Tilida
Rizanova
Qo'riqchi ayol
O'zbek Tilida
BluRay 1080p
SHAFT
O'zbek Tilida
BDRip
SHAFT
O'zbek Tilida
WEBRip 1080p
Javohir politsiyachi
O'zbek Tilida
BDRip-AVC
So'nggi Ritsarlar
O'zbek Tilida
BluRay 1080p
Агент Ева
O'zbek Tilida
WEB-Rip
Анна
iTunes
BDRip 1080p
Анна
iTunes
BDRip-AVC
Анна
iTunes
BDRip
Mulan
O'zbek Tilida
WEBRip 1080p HEVC x265
Мулан
IdeaFilm
WEB-DL 720p
Мулан
IdeaFilm
WEB-DL 1080p
Мулан
IdeaFilm
WEB-DL 2160p
Temir Odam Uchligi
O'zbek Tilida
BluRay, 1080p, HEVC, x265, 10bit
Kliplar To'plami
O'zbek Tilida
Rizanova
Singularity
Repack
Mechanics
Tom Raider
Repack
Xatab
Far Cry New Dawn
Repack
Xatab
Far Cry 3
Repack
Xatab
Фитнес
Россия
WEB-DL 720p
Resident Evil
Гексалогия
Repack
Godzilla 2; Mahluqlar Qiroli
O'zbek Tilida
WEBRip HEVC 720p
Olimpning Qulashi
O'zbek Tilida
BDRip
X-Odamlar Qora Qaqnus
O'zbek Tilida
BDRip 1080p
Sevishganlar
O'zbek Tilida
HDRip
Maymunlar Sayyorasi Uchlik
O'zbek Tilida
BDRip
Koko Siri
O'zbek Tilida
BDRip-AVC
Спартак
РенТВ
BDRip 720p
Shelbilar oilasi
O'zbek Tilida
x265 1080p WEBRip 10bit
Однажды на востоке
Лицензия
BDRip 1080p
Yason va Argonaftlar
O'zbek Tilida
DVDRip x264
Shelbilar oilasi
O'zbek Tilida
BluRay 1080p x264
Qotillik Uchun Uch Kun
O'zbek Tilida
BluRay 1080p x264
Ko'd 211
O'zbek + Rus + Ing
BluRay 1080p
Интрижка
iTunes
WEB-DLRip
WarFace
Лицензия
Русский
Хоббит / Властелин колец
Коллекция
BDRip 1080p H264
SamDrivers
x32/x64
Repack
Чудесный доктор
WEB-DL 1080p
Турция
Острые козырьки
H265 1080p BluRay
Uzb+Ing
S.T.A.L.K.E.R
Анталогия
Repack
Зов джунглей
Рус
WEB-DL 1080p
Ajal Poygasi
Uzb Rus Ing
BrRip 1080p H264
Yengilmas Gvardiya
O'zbek Tilida
WEB-DL 1080p H264
Suv va Olov
O'zbek Tilida
BDRip H264
S.T.A.L.K.E.R.
Анталогия Модов
GSC Game World
GTA 5
RePack
Лицензия
Tunnel: Hayot uchun xavfli
Uzb Tilida
WEB-DL 1080p
Уважаемые гости сайта! Добро Пожаловать на наш торрент трекер,где Вы можете бесплатно скачать любой Софт,Фильмы,Музыку и многое другое! А так же постоянно ведется набор модераторов и релизеров. Зарегистрируйтесь сейчас, чтобы получить доступ ко всем функциям. После регистрации или входа на сайт вы сможете создавать темы, отвечать на сообщения и скачивать файлы.

Rembo: So'nggi Jang / Рэмбо: Последняя кровь / Rambo: Last Blood (Adrian Gyunberg) [2019, Jangari, Triller, Sarguzasht, Tarixiy., HDRip 720p HEVC] O'zbek Tilida.

Статистика раздачи
Качаю: [ 1 ]
Скачал: [ 2 ]
 
     
 
 
Автор Сообщение

N.U.R.I.K.B.E.K ®

Не в сети

5417

Пол: Мужской

Стаж: 1 год 3 месяца

Сообщений: 40

Откуда: Jizzax.Paxtakor

Карма: 110

[+]

Провайдер: UzOnline UzOnline

Наличие запрета:



Награды: Нет

[Профиль] ЛС

Создавать темы 29-Ноя-2019 16:59

Цитировать

-Rembo: So'nggi Jang | Рэмбо: Последняя кровь | Rambo: Last Blood
--Chiqqan yili: 2019
Davlat: AQSH
Janr: Jangari, Triller, Sarguzasht, Tarixiy.
Davomiyligi: 01:30:26
Tarjima: Professional MY5 O'zbek Tilida.--Rejissyor: Adrian Gyunberg.--Rollarda: Sylvester Stallone, Pas Vega, Monreal, Luis Mandilor, Oskar Haenada, Shila Shoh, Serxio Peris-Menchet, Jessica Madsen, Joaquin Koçio, Adriana Barrasa Yashaydi--Tavsif: U butun hayotini sirlarini saqlab qoldi, lekin o'tmishning ko'ziga qarash vaqti keldi. Oxirgi marta to'plash va shafqatsiz qotillik mashinasi bo'lish. Rambo yana o'lik yo'lga chiqadi-u oxirigacha borishi kerak bo'lgan qasos yo'li.--Videoning sifati: HDRip 720p HEVC
Video format: MKV--Video: HEVC 1280x536 29.97fps 848 kb/s
Audio: MP3 48000Hz stereo 128kbps O'zbek Tili
Subtitr: Kor Tilida--

Media Info

General
Format : Matroska
Format version : Version 4 / Version 2
File size : 633 MiB
Duration : 1 h 30 min
Overall bit rate : 978 kb/s
Movie name : PSArips.com | Rambo.Last.Blood.2019.720p.HC.HDRip.2CH.x265.HEVC-PSA
Encoded date : UTC 2019-11-29 18:21:35
Writing application : mkvmerge v15.0.0 ('Duel with the Devil') 64-bit
Writing library : libebml v1.3.5 + libmatroska v1.4.5
Video
ID : 1
Format : HEVC
Format/Info : High Efficiency Video Coding
Format profile : Main@L3.1@Main
Codec ID : V_MPEGH/ISO/HEVC
Duration : 1 h 30 min
Bit rate : 848 kb/s
Width : 1 280 pixels
Height : 536 pixels
Display aspect ratio : 2.40:1
Frame rate mode : Constant
Frame rate : 29.970 (30000/1001) FPS
Color space : YUV
Chroma subsampling : 4:2:0
Bit depth : 8 bits
Bits/(Pixel*Frame) : 0.041
Stream size : 549 MiB (87%)
Default : Yes
Forced : No
Color range : Limited
Color primaries : BT.709
Transfer characteristics : BT.709
Matrix coefficients : BT.709
Audio
ID : 2
Format : MPEG Audio
Format version : Version 1
Format profile : Layer 3
Mode : Joint stereo
Mode extension : MS Stereo
Codec ID : A_MPEG/L3
Codec ID/Hint : MP3
Duration : 1 h 30 min
Bit rate mode : Constant
Bit rate : 128 kb/s
Channel(s) : 2 channels
Sampling rate : 48.0 kHz
Frame rate : 41.667 FPS (1152 SPF)
Compression mode : Lossy
Stream size : 82.8 MiB (13%)
Title : O'zbek Tili
Language : Uzbek
Default : Yes
Forced : No
LAVHALAR
Показать сообщения:    

Текущее время: 22-Окт 15:10

Часовой пояс: UTC - 5



Вы не можете начинать темы
Вы не можете отвечать на сообщения
Вы не можете редактировать свои сообщения
Вы не можете удалять свои сообщения
Вы не можете голосовать в опросах
Вы не можете прикреплять файлы к сообщениям
Вы не можете скачивать файлы