Регистрация ·
Имя: Пароль:  
· Забыли пароль? · Вопросы от гостей
Kliplar To'plami
O'zbek Tilida
Rizanova
12 Round
O'zbek Tilida
BluRay 1080p
Qo'riqchi ayol
O'zbek Tilida
BluRay 1080p
SHAFT
O'zbek Tilida
BDRip
SHAFT
O'zbek Tilida
WEBRip 1080p
Javohir politsiyachi
O'zbek Tilida
BDRip-AVC
So'nggi Ritsarlar
O'zbek Tilida
BluRay 1080p
Агент Ева
O'zbek Tilida
WEB-Rip
Анна
iTunes
BDRip 1080p
Анна
iTunes
BDRip-AVC
Анна
iTunes
BDRip
Mulan
O'zbek Tilida
WEBRip 1080p HEVC x265
Мулан
IdeaFilm
WEB-DL 720p
Мулан
IdeaFilm
WEB-DL 1080p
Мулан
IdeaFilm
WEB-DL 2160p
Temir Odam Uchligi
O'zbek Tilida
BluRay, 1080p, HEVC, x265, 10bit
Kliplar To'plami
O'zbek Tilida
Rizanova
Singularity
Repack
Mechanics
Tom Raider
Repack
Xatab
Far Cry New Dawn
Repack
Xatab
Far Cry 3
Repack
Xatab
Фитнес
Россия
WEB-DL 720p
Resident Evil
Гексалогия
Repack
Godzilla 2; Mahluqlar Qiroli
O'zbek Tilida
WEBRip HEVC 720p
Olimpning Qulashi
O'zbek Tilida
BDRip
X-Odamlar Qora Qaqnus
O'zbek Tilida
BDRip 1080p
Sevishganlar
O'zbek Tilida
HDRip
Maymunlar Sayyorasi Uchlik
O'zbek Tilida
BDRip
Koko Siri
O'zbek Tilida
BDRip-AVC
Спартак
РенТВ
BDRip 720p
Shelbilar oilasi
O'zbek Tilida
x265 1080p WEBRip 10bit
Однажды на востоке
Лицензия
BDRip 1080p
Yason va Argonaftlar
O'zbek Tilida
DVDRip x264
Shelbilar oilasi
O'zbek Tilida
BluRay 1080p x264
Qotillik Uchun Uch Kun
O'zbek Tilida
BluRay 1080p x264
Ko'd 211
O'zbek + Rus + Ing
BluRay 1080p
Интрижка
iTunes
WEB-DLRip
WarFace
Лицензия
Русский
Хоббит / Властелин колец
Коллекция
BDRip 1080p H264
SamDrivers
x32/x64
Repack
Чудесный доктор
WEB-DL 1080p
Турция
Острые козырьки
H265 1080p BluRay
Uzb+Ing
S.T.A.L.K.E.R
Анталогия
Repack
Зов джунглей
Рус
WEB-DL 1080p
Ajal Poygasi
Uzb Rus Ing
BrRip 1080p H264
Yengilmas Gvardiya
O'zbek Tilida
WEB-DL 1080p H264
Suv va Olov
O'zbek Tilida
BDRip H264
S.T.A.L.K.E.R.
Анталогия Модов
GSC Game World
GTA 5
RePack
Лицензия
Tunnel: Hayot uchun xavfli
Uzb Tilida
WEB-DL 1080p
Уважаемые гости сайта! Добро Пожаловать на наш торрент трекер,где Вы можете бесплатно скачать любой Софт,Фильмы,Музыку и многое другое! А так же постоянно ведется набор модераторов и релизеров. Зарегистрируйтесь сейчас, чтобы получить доступ ко всем функциям. После регистрации или входа на сайт вы сможете создавать темы, отвечать на сообщения и скачивать файлы.

Золото джунглей / Oro (Агустин Диас Янес / Agustin Diaz Yanes) [2017, Драма, приключения, история, HDRip]

Статистика раздачи
Нет
 
     
 
 
Автор Сообщение

HellStaff ®

Не в сети

6388

Пол: Мужской

Стаж: 11 дней

Сообщений: 7

Карма: 0

[+]

Провайдер: UzOnline UzOnline

Наличие запрета:



Награды: Нет

[Профиль] ЛС

Создавать темы 18-Ноя-2020 07:52

Цитировать

Золото джунглей / Gold / Oro -Год выпуска: 2017
Страна: Испания
Жанр: Приключения, исторический, драма
Продолжительность: 01:42:29
Перевод: Профессиональный (многоголосый, закадровый) [IVI]-Режиссер: Агустин Диас Янес / Agustin Diaz Janes-В ролях: Рауль Аревало, Барбара Ленни, Оскар Хаенада, Хосе Коронадо, Хосе Мануэль Сервино, Антонио Дечент, Хуан Хосе Бальеста, Луис Кальехо, Анна Кастильо, Андрес Гертрудикс, Хосеан Бенгоэчеа-Описание: 1538 год, джунгли Амазонии. Король Испании и император Священной Римской империи Карл V посылает экспедицию испанских солдат на поиски легендарного Золотого города. Оказавшись в одиночестве в джунглях, солдаты должны противостоять не только враждебным племенам, но и внутренним распрям. Главой экспедиции назначен пожилой и слабый здоровьем дон Гонзало, женатый на молодой красавице донье Ане. Однако на лидерство и донью Ану претендуют правая рука Гонзало Альферез Горриаменди и солдат Мартин Де Вила. Соперничество и ненависть между ними могут оказаться куда опаснее, чем джунгли и скрывающиеся в них туземцы.- -Качество: HDRip
Формат: AVI
Видео: XviD, 1649 Kb/s, 720x304
Аудио: AC3, 6 ch, 384 Kb/s-

MediaInfo

General
Complete name : Zoloto.dzhungley.2017.HDRip.ELEKTRI4KA.UNIONGANG.avi
Format : AVI
Format/Info : Audio Video Interleave
Format profile : OpenDML
File size : 1.46 GiB
Duration : 1 h 42 min
Overall bit rate : 2 044 kb/s
Movie name : .ELEKTRI4KA.UNIONGANG.
Writing application : Lavf58.20.100
Video
ID : 0
Format : MPEG-4 Visual
Format profile : Advanced Simple@L5
Format settings : BVOP1
Format settings, BVOP : 1
Format settings, QPel : No
Format settings, GMC : No warppoints
Format settings, Matrix : Default (H.263)
Codec ID : XVID
Codec ID/Hint : XviD
Duration : 1 h 42 min
Bit rate : 1 649 kb/s
Width : 720 pixels
Height : 304 pixels
Display aspect ratio : 2.35:1
Frame rate : 24.000 FPS
Color space : YUV
Chroma subsampling : 4:2:0
Bit depth : 8 bits
Scan type : Progressive
Compression mode : Lossy
Bits/(Pixel*Frame) : 0.314
Stream size : 1.18 GiB (81%)
Writing library : XviD 67
Audio
ID : 1
Format : AC-3
Format/Info : Audio Coding 3
Commercial name : Dolby Digital
Codec ID : 2000
Duration : 1 h 42 min
Bit rate mode : Constant
Bit rate : 384 kb/s
Channel(s) : 6 channels
Channel layout : L R C LFE Ls Rs
Sampling rate : 48.0 kHz
Frame rate : 31.250 FPS (1536 SPF)
Bit depth : 16 bits
Compression mode : Lossy
Stream size : 282 MiB (19%)
Alignment : Aligned on interleaves
Interleave, duration : 32 ms (0.77 video frame)
Title : MVO (IVI)
Service kind : Complete Main
Показать сообщения:    

Текущее время: 28-Ноя 23:18

Часовой пояс: UTC - 5



Вы не можете начинать темы
Вы не можете отвечать на сообщения
Вы не можете редактировать свои сообщения
Вы не можете удалять свои сообщения
Вы не можете голосовать в опросах
Вы не можете прикреплять файлы к сообщениям
Вы не можете скачивать файлы