Регистрация ·
Имя: Пароль:  
· Забыли пароль? · Вопросы от гостей
Kliplar To'plami
O'zbek Tilida
Rizanova
12 Round
O'zbek Tilida
BluRay 1080p
Qo'riqchi ayol
O'zbek Tilida
BluRay 1080p
SHAFT
O'zbek Tilida
BDRip
SHAFT
O'zbek Tilida
WEBRip 1080p
Javohir politsiyachi
O'zbek Tilida
BDRip-AVC
So'nggi Ritsarlar
O'zbek Tilida
BluRay 1080p
Агент Ева
O'zbek Tilida
WEB-Rip
Анна
iTunes
BDRip 1080p
Анна
iTunes
BDRip-AVC
Анна
iTunes
BDRip
Mulan
O'zbek Tilida
WEBRip 1080p HEVC x265
Мулан
IdeaFilm
WEB-DL 720p
Мулан
IdeaFilm
WEB-DL 1080p
Мулан
IdeaFilm
WEB-DL 2160p
Temir Odam Uchligi
O'zbek Tilida
BluRay, 1080p, HEVC, x265, 10bit
Kliplar To'plami
O'zbek Tilida
Rizanova
Singularity
Repack
Mechanics
Tom Raider
Repack
Xatab
Far Cry New Dawn
Repack
Xatab
Far Cry 3
Repack
Xatab
Фитнес
Россия
WEB-DL 720p
Resident Evil
Гексалогия
Repack
Godzilla 2; Mahluqlar Qiroli
O'zbek Tilida
WEBRip HEVC 720p
Olimpning Qulashi
O'zbek Tilida
BDRip
X-Odamlar Qora Qaqnus
O'zbek Tilida
BDRip 1080p
Sevishganlar
O'zbek Tilida
HDRip
Maymunlar Sayyorasi Uchlik
O'zbek Tilida
BDRip
Koko Siri
O'zbek Tilida
BDRip-AVC
Спартак
РенТВ
BDRip 720p
Shelbilar oilasi
O'zbek Tilida
x265 1080p WEBRip 10bit
Однажды на востоке
Лицензия
BDRip 1080p
Yason va Argonaftlar
O'zbek Tilida
DVDRip x264
Shelbilar oilasi
O'zbek Tilida
BluRay 1080p x264
Qotillik Uchun Uch Kun
O'zbek Tilida
BluRay 1080p x264
Ko'd 211
O'zbek + Rus + Ing
BluRay 1080p
Интрижка
iTunes
WEB-DLRip
WarFace
Лицензия
Русский
Хоббит / Властелин колец
Коллекция
BDRip 1080p H264
SamDrivers
x32/x64
Repack
Чудесный доктор
WEB-DL 1080p
Турция
Острые козырьки
H265 1080p BluRay
Uzb+Ing
S.T.A.L.K.E.R
Анталогия
Repack
Зов джунглей
Рус
WEB-DL 1080p
Ajal Poygasi
Uzb Rus Ing
BrRip 1080p H264
Yengilmas Gvardiya
O'zbek Tilida
WEB-DL 1080p H264
Suv va Olov
O'zbek Tilida
BDRip H264
S.T.A.L.K.E.R.
Анталогия Модов
GSC Game World
GTA 5
RePack
Лицензия
Tunnel: Hayot uchun xavfli
Uzb Tilida
WEB-DL 1080p
Уважаемые гости сайта! Добро Пожаловать на наш торрент трекер,где Вы можете бесплатно скачать любой Софт,Фильмы,Музыку и многое другое! А так же постоянно ведется набор модераторов и релизеров. Зарегистрируйтесь сейчас, чтобы получить доступ ко всем функциям. После регистрации или входа на сайт вы сможете создавать темы, отвечать на сообщения и скачивать файлы.

Umar al-Faruq. Umar ibn al-Xattob / Faruq Omar / 30 Qism (Hatem Ali) [2012, tarixiy, drama, HDTV 720p] MilliyTv O'zbek Tilida

Статистика раздачи
Нет
 
     
 
 
Автор Сообщение

UmarShoh ®

Не в сети

5439

Пол: Мужской

Стаж: 1 год 3 месяца

Сообщений: 37

Карма: 100

[+]

Провайдер: UzOnline UzOnline

Наличие запрета:



Награды: Нет

[Профиль] ЛС

Создавать темы 25-Окт-2019 11:53

Цитировать

-Umar al-Faruq. Umar ibn al-Xattob / Faruq Umar-- Chiqqan yili: 2012 yil
Davlat: Qatar
Janr: Tarixiy, drama
Davomiyligi: 00:41:00
Tarjima : Ko'p ovozli kadr ortidan [MilliyTV]-Rejissiyor: Hatem Ali-Rollarda: Samer Izmail, Hasan Masud, Mehyar Haddur, Zied Tuathi, Jihod Abdou-Tavsif: Umar al-Faruq - Umar ibn al-Xattob
Haqiqiy hodisalarga asoslangan film, Payg'ambarimizning eng jo'shqin izdoshlaridan biri va birinchi islomiy hukmdorlardan biri bo'lgan
Umar sollallohu alayhi va sallamning ikkinchi solihlari Umar ibn Al-Xattob (Umar al-Faruq)
Arabiston, VII asr Islom, yangi din bir necha izdoshlari bilan kurashda, Quraysh kuchli qabila mahalliy qahramon qo'llab-quvvatlash haqidagi va'dasini istaydi - jasur Umar,
sayyidimiz Muhammadga o'ldirish va bir marta va barcha uchun yangi iymon chek va arablar qo'yish, ularning rejasi ustida. U (Umar) bashoratning 6-yiliga qadar islom va
musulmonlarning aniq dushmani edi. Ammo vaqt o'tib, u Qur'on o'qib, uni berdi singlisi, ta'siri ostida Islom bo'yicha fikr qayta ko'rib, va Payg'ambarimiz Muhammad bilan uchrashish istagini bildirdilar.
Bu hodisadan keyin Umar (roziyallohuanhu) Payg'ambar alayhissalomning eng yaqin do'stlaridan biriga aylandi. Birinchi islom xalifasi
Abu Bakr al-Siddiq o'limidan so'ng Madina xalifasi Umar ibn al-Xattobni boshqarib, ikkinchi soliha xalifaga aylandi.
Uning boshqaruvi ostida islomiy qo'shinlar Vizantiya imperiyasi va Sassanid Forsi askarlarini g'alaba bilan bostirib, xalifalik chegaralarini sezilarli darajada kengaytirib,
unga barcha yangi hududlarni kiritdilar. Jahon islomiy davlati ko'plab mamlakatlarga tarqalib, islomni tasdiqlash uchun kuchli, kuchliroq va yanada ulug'lashgan.-Arab tilidagi eng qimmatbaho teleserial. Ushbu seriyalarning maxsus effektlari Gollivudda yaratilgan.
Islom tarixidagi eng muhim shaxslardan biri bo'lgan sahobiy Umar ibn Xattobning hayoti haqida ajoyib arabcha turkumlar.-Qo'shimchalar. ma'lumot: davomiyligi: ~ 00: 41: 00 seriyasi // 30-seriya: 01:25:25-Videoning sifati: HDTV
Format video: MKV-Video: MPEG-4, 1280x720 (16: 9), AVC ~ 2040 kb/s, 25000 fps.
Audio #1: AAC, 44.1 KHz, 192.00 Kbps, 2 ch. Arab
Audio #2: AAC, 44.1 KHz, 128.00 Kbps, 2 ch. Uzb-

Mediainfo


General
Unique ID : 332119835232782364320287392977354366635 (0xF9DBF41DD13F89F155A64ED67CA61EAB)
Complete name : D:\Media\Seriallar\02) Farouk Omar [ S01E01-S01E30.720p.HDTV.x264 ] O'zbek tilida\Farouk Omar [ S01E01.720p.HDTV.x264 ] O'zbek tilida.mkv
Format : Matroska
Format version : Version 4
File size : 739 MiB
Duration : 43 min 45 s
Overall bit rate : 2 361 kb/s
Movie name : Encoded By abouammar
Encoded date : UTC 2018-06-14 03:36:36
Writing application : mkvmerge v24.0.0 ('Beyond The Pale') 64-bit
Writing library : libebml v1.3.6 + libmatroska v1.4.9
Video
ID : 1
Format : AVC
Format/Info : Advanced Video Codec
Format profile : High@L4.1
Format settings : CABAC / 4 Ref Frames
Format settings, CABAC : Yes
Format settings, Reference : 4 frames
Codec ID : V_MPEG4/ISO/AVC
Duration : 43 min 45 s
Bit rate : 2 040 kb/s
Width : 1 280 pixels
Height : 544 pixels
Display aspect ratio : 2.35:1
Frame rate mode : Constant
Frame rate : 25.000 FPS
Color space : YUV
Chroma subsampling : 4:2:0
Bit depth : 8 bits
Scan type : Progressive
Bits/(Pixel*Frame) : 0.117
Stream size : 638 MiB (86%)
Title : Encoded By UmarShoh_FL
Writing library : x264 core 125 r2200 999b753
Encoding settings : cabac=1 / ref=3 / deblock=1:0:0 / analyse=0x3:0x113 / me=hex / subme=7 / psy=1 / psy_rd=1.00:0.00 / mixed_ref=1 / me_range=16 / chroma_me=1 / trellis=1 / 8x8dct=1 / cqm=0 / deadzone=21,11 / fast_pskip=1 / chroma_qp_offset=-2 / threads=12 / lookahead_threads=2 / sliced_threads=0 / nr=0 / decimate=1 / interlaced=0 / bluray_compat=0 / constrained_intra=0 / bframes=3 / b_pyramid=2 / b_adapt=1 / b_bias=0 / direct=1 / weightb=1 / open_gop=0 / weightp=2 / keyint=250 / keyint_min=25 / scenecut=40 / intra_refresh=0 / rc_lookahead=40 / rc=2pass / mbtree=1 / bitrate=2040 / ratetol=1.0 / qcomp=0.60 / qpmin=0 / qpmax=69 / qpstep=4 / cplxblur=20.0 / qblur=0.5 / ip_ratio=1.40 / aq=1:1.00
Language : Arabic
Default : Yes
Forced : No
Audio #1
ID : 2
Format : AAC LC
Format/Info : Advanced Audio Codec Low Complexity
Codec ID : A_AAC-2
Duration : 43 min 45 s
Bit rate : 192 kb/s
Channel(s) : 2 channels
Channel layout : L R
Sampling rate : 48.0 kHz
Frame rate : 46.875 FPS (1024 SPF)
Compression mode : Lossy
Stream size : 60.1 MiB (8%)
Title : Orginal
Language : Arabic
Default : No
Forced : No
Audio #2
ID : 3
Format : MPEG Audio
Format version : Version 1
Format profile : Layer 3
Format settings : Joint stereo / MS Stereo
Codec ID : A_MPEG/L3
Codec ID/Hint : MP3
Duration : 43 min 45 s
Bit rate mode : Constant
Bit rate : 128 kb/s
Channel(s) : 2 channels
Sampling rate : 44.1 kHz
Frame rate : 38.281 FPS (1152 SPF)
Compression mode : Lossy
Stream size : 40.1 MiB (5%)
Title : Milliy_Tv (UmarShoh_FL)
Writing library : LAME3.99.5
Language : Uzbek
Default : Yes
Forced : No

-746

Создавать темы 27-Окт-2019 13:43 (спустя 2 дня 1 час)

Топик был перенесен из форума Для пробных раздач в форум Ўзбек тилидаги сериаллар учун
NuRKHoNoFF

vodiylik

Не в сети

6350

Пол: Мужской

Стаж: 1 месяц 19 дней

Сообщений: 2

Карма: 0

[+]

Провайдер: Beeline Beeline

Наличие запрета:



Награды: Нет

[Профиль] ЛС

Создавать темы 21-Ноя-2020 04:11 (спустя 1 год)

Цитировать

Nega yuklab olib bo'lmayapti torrent faylni?
Показать сообщения:    

Текущее время: 23-Ноя 14:05

Часовой пояс: UTC - 5



Вы не можете начинать темы
Вы не можете отвечать на сообщения
Вы не можете редактировать свои сообщения
Вы не можете удалять свои сообщения
Вы не можете голосовать в опросах
Вы не можете прикреплять файлы к сообщениям
Вы не можете скачивать файлы